002: Операция Луна / 002 operazione Luna (Лючио Фульчи) [1965 г., Фантастика, комедия, сатира, DVDRip-AVC] ЛО (Алексей Чуев), СТ

Reply to topic
 
Author Message

admin ®

Gender: Male

Longevity: 7 years 3 months

Posts: 4813

Post 13-Sep-2012 04:38

[Quote]

002 Операция Луна / 002 operazione Luna
Год выпуска: 1965
Страна: Италия, Испания, Ágata Films S.A., IMA Productions
Жанр: Фантастика, комедия, сатира
Продолжительность: 01:24:48
Перевод: Любительский (одноголосый)Алексей Чуев
Режиссер: Лючио Фульчи
В ролях: Франко Франки, Чиччо Инграссия, Моника Рандалл, Линда Сини, Мария Силва, Елена Зедлак, Эмилио Родригес, Чиро Бермехо, Игнацио Леоне, Франко Моричи
Описание: СССР запускает на Луну космический корабль с двумя космонавтами. Внезапно связь с ним теряется, и советские учёные решают, что корабль был уничтожен. Чтобы скрыть провал миссии, спецслужбы СССР решают запустить в космос двух итальянцев, как две капли воды похожих на «погибших» советских космонавтов...
Качество: DVDRip-AVC
Формат: MKV
Видео: x264, 1591 Кбит/с, 720x544@1024х544 crf=21
Аудио 1: Русский (AC3, 2 ch, 192 Кбит/с)
Аудио 2: Итальянский (AC3, 2 ch, 192 Кбит/с)
Субтитры : Русские, английские, итальянские

Релиз

Рип с ДВД5 и монтаж - sasha20072007, качество рипа - crf=21
Перевод: El_Parasito (Сергей Супрун)
Редакт. субтитров - sasha20072007 (А.Середа)
Озвучка: Алексей Чуев (lehachuev)
Сравнение с исходником ДВД5
Для Украины: рип и ориг. ДВД5 дополнительно залиты в файлохранилище
Для удаления и добавления дорожек в mkv используйте бесплатную mkvmerge GUI 5.80

Дополнительно

Другие названия:
002 Operation Moon (undefined)
Dos cosmonautas a la fuerza Spain
Praktores 002, epiheirisis Selini Greece (transliterated ISO-LATIN-1 title)

MediaInfo

Общее
Уникальный идентификатор : 252649144303329743507238610368817834147 (0xBE12748ADAE2946782A43F4BE788A8A3)
Полное имя : E:\002.Operatsija.Luna.1965.x264.DVDRip.(AVC).sasha200720.mkv
Формат : Matroska
Версия формата : Version 2
Размер файла : 1,20 Гбайт
Продолжительность : 1 ч. 24 м.
Общий поток : 2016 Кбит/сек
Название фильма : 002 Operazione Luna / 002 Операция Луна / 1965 / rip by sasha20072007
Дата кодирования : UTC 2012-04-21 16:17:15
Программа кодирования : mkvmerge v5.5.0 ('Healer') built on Apr 16 2012 15:39:18
Библиотека кодирования : libebml v1.2.3 + libmatroska v1.3.0
Attachment : Yes
Видео
Идентификатор : 1
Формат : AVC
Формат/Информация : Advanced Video Codec
Профиль формата : High@L4.1
Параметр CABAC формата : Да
Параметр ReFrames формата : 10 кадров
Идентификатор кодека : V_MPEG4/ISO/AVC
Продолжительность : 1 ч. 24 м.
Битрейт : 1591 Кбит/сек
Ширина : 720 пикселей
Высота : 544 пикселя
Соотношение сторон : 1,882
Частота кадров : 25,000 кадров/сек
Цветовое пространство : YUV
Субдискретизация насыщенности : 4:2:0
Битовая глубина : 8 бит
Тип развёртки : Прогрессивная
Бит/(Пиксели*Кадры) : 0.163
Размер потока : 967 Мбайт (79%)
Библиотека кодирования : x264 core 120 r2164 da19765
Настройки программы : cabac=1 / ref=10 / deblock=1:-2:-2 / analyse=0x3:0x133 / me=umh / subme=11 / psy=1 / psy_rd=1.00:0.15 / mixed_ref=1 / me_range=24 / chroma_me=1 / trellis=2 / 8x8dct=1 / cqm=0 / deadzone=21,11 / fast_pskip=1 / chroma_qp_offset=-3 / threads=12 / sliced_threads=0 / nr=0 / decimate=1 / interlaced=0 / bluray_compat=0 / constrained_intra=0 / bframes=10 / b_pyramid=2 / b_adapt=2 / b_bias=0 / direct=3 / weightb=1 / open_gop=0 / weightp=2 / keyint=220 / keyint_min=22 / scenecut=40 / intra_refresh=0 / rc_lookahead=60 / rc=crf / mbtree=1 / crf=21.0 / qcomp=0.60 / qpmin=0 / qpmax=69 / qpstep=4 / vbv_maxrate=17500 / vbv_bufsize=14000 / crf_max=0.0 / nal_hrd=none / ip_ratio=1.25 / aq=1:1.00
Default : Да
Forced : Нет
Аудио #1
Идентификатор : 2
Формат : AC-3
Формат/Информация : Audio Coding 3
Расширение режима : CM (complete main)
Параметр Endianness формата : Big
Идентификатор кодека : A_AC3
Продолжительность : 1 ч. 24 м.
Вид битрейта : Постоянный
Битрейт : 192 Кбит/сек
Каналы : 2 канала
Расположение каналов : Front: L R
Частота : 48,0 КГц
Битовая глубина : 16 бит
Метод сжатия : С потерями
Размер потока : 117 Мбайт (10%)
Заголовок : Русский (Алексей Чуев (lehachuev)
Язык : Russian
Default : Да
Forced : Да
Аудио #2
Идентификатор : 3
Формат : AC-3
Формат/Информация : Audio Coding 3
Расширение режима : CM (complete main)
Параметр Endianness формата : Big
Идентификатор кодека : A_AC3
Продолжительность : 1 ч. 24 м.
Вид битрейта : Постоянный
Битрейт : 192 Кбит/сек
Каналы : 2 канала
Расположение каналов : Front: L R
Частота : 48,0 КГц
Битовая глубина : 16 бит
Метод сжатия : С потерями
Размер потока : 117 Мбайт (10%)
Язык : Italian
Default : Нет
Forced : Нет
Текст #1
Идентификатор : 4
Формат : VobSub
Идентификатор кодека : S_VOBSUB
Идентификатор кодека/Информация : The same subtitle format used on DVDs
Заголовок : Русский (El_Parasito (Сергей Супрун) VobSub
Язык : Russian
Default : Да
Forced : Нет
Текст #2
Идентификатор : 5
Формат : UTF-8
Идентификатор кодека : S_TEXT/UTF8
Идентификатор кодека/Информация : UTF-8 Plain Text
Заголовок : Русский (El_Parasito (Сергей Супрун) srt
Язык : Russian
Default : Нет
Forced : Нет
Текст #3
Идентификатор : 6
Формат : UTF-8
Идентификатор кодека : S_TEXT/UTF8
Идентификатор кодека/Информация : UTF-8 Plain Text
Язык : English
Default : Нет
Forced : Нет
Текст #4
Идентификатор : 7
Формат : VobSub
Идентификатор кодека : S_VOBSUB
Идентификатор кодека/Информация : The same subtitle format used on DVDs
Язык : Italian
Default : Нет
Forced : Нет
Меню
00:00:00.000 : :Chapter 01
00:06:03.360 : :Chapter 02
00:13:22.560 : :Chapter 03
00:18:27.360 : :Chapter 04
00:27:04.800 : :Chapter 05
00:31:21.600 : :Chapter 06
00:39:01.920 : :Chapter 07
00:47:17.760 : :Chapter 08
00:54:52.800 : :Chapter 09
01:03:02.400 : :Chapter 10
01:10:43.680 : :Chapter 11
01:21:50.880 : :Chapter 12

Скриншоты


[Profile] [PM]
Quick Reply

Name:

            
Heads necessary to send messages to enable JavaScript
Display posts:    
Reply to topic

Current time is: 16-Dec 08:38

All times are UTC + 3



You cannot post new topics in this forum
You can reply to topics in this forum
You cannot edit your posts in this forum
You cannot delete your posts in this forum
You cannot vote in polls in this forum
You cannot attach files in this forum
You cannot download files in this forum