День, когда Земле пришел конец / Day the World Ended (Роджер Корман / Roger Corman) [1955 г., Фантастика, ужасы, DVDRip-AVC] 2xЛО (den904, SATKUR), СТ (VampirO (c)

Reply to topic
 
Author Message

admin ®

Gender: Male

Longevity: 7 years

Posts: 4725

Location: Україна

Post 13-Sep-2012 04:15

[Quote]

День, когда Земле пришел конец / Day the World Ended
Год выпуска: 1955
Страна: США, Golden State Productions
Жанр: Фантастика, ужасы
Продолжительность: 01:19:09
Перевод 1-2: 2xЛО (kosmoaelita,den904; SATKUR )
Перевод 3: Субтитры VampirO (c)
Режиссер: Роджер Корман / Roger Corman
В ролях: Ричард Дэннинг, Лори Нельсон, Адэль Йоргенс, Майк Коннорс, Пол Бирч, Реймонд Хаттон, Пол Дубов
Описание: В преддверии ядерного апокалипсиса Джим успел соорудить надёжное убежище и заготовить достаточное количество провизии, так что после катастрофы ему и его близким оставалось только дождаться, пока уменьшится радиационное загрязнение. Однако с появлением новой парочки уцелевших, а также мутанта, объявившегося в близлежащем лесу, их выживание оказалось под вопросом.
Релиз

Качество: DVDRip-AVC
Формат: MKV
Видео: x264, 1772 Кбит/с, 720x472@845х472 crf=20
Аудио 1: Русский ЛО (den904) (AC3, 2 ch, 192 Кбит/с)
Аудио 2: Русский ЛО (SATKUR) (AC3, 2 ch, 192 Кбит/с)
Аудио 3: Английский (AC3, 2 ch, 192 Кбит/с)
Субтитры : Русские (VampirO (c)


Пример русской озвучки (den904) и субтитров

Релиз

Рип с ДВД5 и монтаж - sasha20072007, качество рипа - crf=20
Перевод и начальные субтитры:VampirO (c)
Пересинхронизация субтитров: sasha20072007
Русская озвучка по заказу kosmoaelita - den904
Озвучка SATKUR найдена в сети. Синхрон дорожки - kosmoaelita
Сравнение с рипом на рутрекере
Для Украины: фильм дополнительно залит в файлохранилище
Для удаления и добавления дорожек в mkv используйте бесплатную mkvmerge GUI 5.80

Дополнительно

Слоган «ATTACKED... by a creature from hell!»
Другие названия:
Day the World Ended France (DVD title)
Die letzten Sieben West Germany
El monstruo del planeta perdido Venezuela
Il mostro del pianeta perduto Italy
To teras tis mavris koilados Greece (transliterated ISO-LATIN-1 title)

Рецензия

Про что? После начала ядерной катастрофы семеро случайных людей и один неслучайный ослик оказываются на ранчо Джима Мэдисона. Ранчо расположено глубоко в каньоне возле теплого озера, поэтому взрывная волна и радиоактивные осадки пока миновали этот райский уголок. Семеро людей – это капитан Мэдисон и его дочь, геолог Рик и спасенный им иммигрант Радек, гангстер Тони Ламонт и стриптизерша Руби, а также старик-фермер и его любимый ослик по кличке Дьябло.
Капитан Мэдисон – опытный параноик, поэтому крупы и сахара в его гнезде припасено на несколько месяцев вперед. Гангстер это прекрасно понимает, поэтому собирается захватить власть на ранчо и поменять поношенную Руби на капитанскую дочку. Но его план по захвату территории постоянно откладывается, так как в ближайшей лесополосе появилась крыса. Или даже не крыса, а что-то намного серьезнее и крупнее.
Неизвестное существо уже съело бедного ослика и теперь плотоядно смотрит в сторону человеческих особей.
Мэдисон в свое время присутствовал на испытаниях водородной бомбы и видел, что происходит с выжившими животными. Всего за пару дней они превращались из милых пушистиков в кровожадных и голодных уродов. Капитан и геолог начинают подозревать, что существо из леса — это сбежавший Радек. Уж слишком подозрительно кричал он, выбегая из дома: I just can't help it, I have this uncontrollable urge to eat meat. Red... raw... meat.
В чем фишка? Один из первых фильмов в карьере 28-летнего Роджера Кормана. Неплохой, реально неплохой. Снят всего за семь дней и с бюджетом в 96.000 баксов, но при этом впечатляет и по сей день. Два римейка, страница в учебниках, респект и уважуха.
Можно догадаться, что критики 50-х фильм совершенно не уважали. Подмена лозунга “люди- говно, нет войне” на “караул! радиоактивное мясо нас всех сожрет!” выглядит политически некорректно даже полвека спустя.
Ну и как? Симпатичное черно-белое кино. Как любят говорить обозреватели (в том числе и на IMDB), “День, когда Земли не стало” – это идеальный выбор для холодного дождливого вечера.
(30.11.2009)

MediaInfo

Общее
Уникальный идентификатор : 232667192400267350851390737578172275147 (0xAF0A124031964AEC9BA1FDBD0E86D9CB)
Полное имя : E:\Day the World Ended 1955.x264.DVDRip.AVC.2xRus.kosmoaelita.mkv
Формат : Matroska
Версия формата : Version 4 / Version 2
Размер файла : 1,36 Гбайт
Продолжительность : 1 ч. 19 м.
Общий поток : 2461 Кбит/сек
Название фильма : Day The World Ended / День, когда Земле пришел конец / 1955 / rip by sasha20072007
Дата кодирования : UTC 2014-03-28 02:45:16
Программа кодирования : mkvmerge v6.6.0 ('The Edge Of The In Between') built on Dec 7 2013 13:21:48
Библиотека кодирования : libebml v1.3.0 + libmatroska v1.4.1
Attachment : Yes
Видео
Идентификатор : 1
Формат : AVC
Формат/Информация : Advanced Video Codec
Профиль формата : High@L4.1
Параметр CABAC формата : Да
Параметр ReFrames формата : 10 кадров
Идентификатор кодека : V_MPEG4/ISO/AVC
Продолжительность : 1 ч. 19 м.
Битрейт : 1772 Кбит/сек
Ширина : 720 пикселей
Высота : 472 пикселя
Соотношение сторон : 16:9
Режим частоты кадров : Постоянный
Частота кадров : 23,976 кадра/сек
Цветовое пространство : YUV
Субдискретизация насыщенности : 4:2:0
Битовая глубина : 8 бит
Тип развёртки : Прогрессивная
Бит/(Пиксели*Кадры) : 0.217
Размер потока : 1002 Мбайт (72%)
Библиотека кодирования : x264 core 120 r2164 da19765
Настройки программы : cabac=1 / ref=10 / deblock=1:-2:-2 / analyse=0x3:0x133 / me=umh / subme=11 / psy=1 / psy_rd=1.00:0.25 / mixed_ref=1 / me_range=24 / chroma_me=1 / trellis=2 / 8x8dct=1 / cqm=0 / deadzone=21,11 / fast_pskip=1 / chroma_qp_offset=-4 / threads=12 / sliced_threads=0 / nr=0 / decimate=1 / interlaced=0 / bluray_compat=0 / constrained_intra=0 / bframes=10 / b_pyramid=2 / b_adapt=2 / b_bias=0 / direct=3 / weightb=1 / open_gop=0 / weightp=2 / keyint=220 / keyint_min=22 / scenecut=40 / intra_refresh=0 / rc_lookahead=60 / rc=crf / mbtree=1 / crf=20.0 / qcomp=0.60 / qpmin=0 / qpmax=69 / qpstep=4 / vbv_maxrate=17500 / vbv_bufsize=14000 / crf_max=0.0 / nal_hrd=none / ip_ratio=1.27 / aq=1:1.00
Язык : English
Default : Да
Forced : Нет
Аудио #1
Идентификатор : 2
Формат : AC-3
Формат/Информация : Audio Coding 3
Расширение режима : CM (complete main)
Параметр Endianness формата : Big
Идентификатор кодека : A_AC3
Продолжительность : 1 ч. 19 м.
Вид битрейта : Постоянный
Битрейт : 192 Кбит/сек
Каналы : 2 канала
Расположение каналов : Front: L R
Частота : 48,0 КГц
Битовая глубина : 16 бит
Метод сжатия : С потерями
Размер потока : 109 Мбайт (8%)
Заголовок : Русский ЛО (den904 для kosmoaelita.com)
Язык : Russian
Default : Да
Forced : Нет
Аудио #2
Идентификатор : 3
Формат : AC-3
Формат/Информация : Audio Coding 3
Расширение режима : CM (complete main)
Параметр Endianness формата : Big
Идентификатор кодека : A_AC3
Продолжительность : 1 ч. 19 м.
Вид битрейта : Постоянный
Битрейт : 192 Кбит/сек
Каналы : 2 канала
Расположение каналов : Front: L R
Частота : 48,0 КГц
Битовая глубина : 16 бит
Метод сжатия : С потерями
Размер потока : 109 Мбайт (8%)
Заголовок : Русский ЛО (SATKUR)
Язык : Russian
Default : Нет
Forced : Нет
Аудио #3
Идентификатор : 4
Формат : AC-3
Формат/Информация : Audio Coding 3
Расширение режима : CM (complete main)
Параметр Endianness формата : Big
Идентификатор кодека : A_AC3
Продолжительность : 1 ч. 19 м.
Вид битрейта : Постоянный
Битрейт : 256 Кбит/сек
Каналы : 2 канала
Расположение каналов : Front: L R
Частота : 48,0 КГц
Битовая глубина : 16 бит
Метод сжатия : С потерями
Задержка видео : 22 мс.
Размер потока : 145 Мбайт (10%)
Язык : English
Default : Нет
Forced : Нет
Текст #1
Идентификатор : 5
Формат : VobSub
Режим смешивания : zlib
Идентификатор кодека : S_VOBSUB
Идентификатор кодека/Информация : The same subtitle format used on DVDs
Заголовок : Русский ( VampirO (c) VobSub
Язык : Russian
Default : Да
Forced : Да
Текст #2
Идентификатор : 6
Формат : UTF-8
Идентификатор кодека : S_TEXT/UTF8
Идентификатор кодека/Информация : UTF-8 Plain Text
Заголовок : Русский ( VampirO (c) srt
Язык : Russian
Default : Нет
Forced : Нет

Скриншоты



cd Рип дополнительно залит на облако mail.ru cd2
[Profile] [PM]

Guest

Gender: Unknown

Post 29-Aug-2013 22:03 (after 11 months 16 days)

[Quote]

Добавлена русская озвучка от den904
 

Guest

Gender: Unknown

Post 28-Mar-2014 05:56 (after 6 months 29 days)

[Quote]

Добавлена ЛО озвучка от SATKUR
 
Quick Reply

Name:

            
Heads necessary to send messages to enable JavaScript
Display posts:    
Reply to topic

Current time is: 21-Sep 02:08

All times are UTC + 3



You cannot post new topics in this forum
You can reply to topics in this forum
You cannot edit your posts in this forum
You cannot delete your posts in this forum
You cannot vote in polls in this forum
You cannot attach files in this forum
You cannot download files in this forum