Спаситель Земли / Savior of the Earth / Computer haekjeonham pokpa daejakjeon / Корейский "Трон" (Рой Томас / Су-Ёнг Джонг) [1983 г., фантастика, VHSRip] АО (Трамвай-фильм)

Reply to topic
 
Author Message

Трамвай-фильм ®

Gender: Male

Longevity: 5 years 4 months

Posts: 1705

Location: Россия

Post 12-Aug-2014 16:55

[Quote]

Спаситель Земли / Savior of the Earth / Computer haekjeonham pokpa daejakjeon / Корейский "Трон"
Год выпуска: 1983
Страна: Гонконг/ Юж.Корея
Жанр: фантастика
Продолжительность: 01:05:02
Перевод: Авторский одноголосый Трамвай-фильм
Режиссер: Рой Томас / Су-Ёнг Джонг
Описание: По всему Миру компьютеры сходят с ума, парализованы системы транспорта, навигации, финансов и даже обороны. Планета стоит на гране глобального хаоса, решением вопроса займется доктор Ким и 2 его ассистента: строгая Шилла, и легкомысленный лентяй и любитель компьютерных игр Киф, которому и предстоит спасать Мир
Качество: VHSRip
Формат: MKV
Видео кодек: XviD
Аудио кодек: MP3
Видео: Xvid, 640x480, 25fps, 1466 Кбит/с
Аудио: MP3, 44100Hz, stereo, 128 Кбит/с, 2 канала
Работа над релизом:


[kp][/kp]

Пример русской озвучки

Дополнительно

Also Known As (AKA)
Brazil Vigilantes da Terra
Spain Guardianes de la tierra
France (video title) Le sauveur de la terre
Poland Wybawca Ziemi
World-wide (English title) Savior of the Earth

Знаете ли вы, что...

Этот фильм "рип-офф" легендарного "Трона" от Диснея, который куплен Дж. Лаем в рамках программы интервенции на американский рынок видеопроката, в 1980-х, вместе с другими мульфтильмами от корейских аниматоров, в т.ч. эксплуатирующих образ робота Мазингера.
Фильм вошел в другую полнометражку Лая "Дети космического Грома"

Отзывы

Рецензия

МедиаИнфо

Format version : Version 2
File size : 757 MiB
Duration : 1h 5mn
Overall bit rate : 1 627 Kbps
Encoded date : UTC 2013-02-17 14:24:11
Writing application : mkvmerge v4.6.0 ('Still Crazy After All These Years') сборка от Mar 10 2011 02:50:32
Writing library : libebml v1.2.0 + libmatroska v1.1.0
Video
ID : 1
Format : MPEG-4 Visual
Format profile : Simple@L3
Format settings, BVOP : No
Format settings, QPel : No
Format settings, GMC : No warppoints
Format settings, Matrix : Default (H.263)
Codec ID : V_MS/VFW/FOURCC / XVID
Codec ID/Hint : XviD
Duration : 1h 5mn
Bit rate : 1 466 Kbps
Width : 640 pixels
Height : 480 pixels
Display aspect ratio : 4:3
Frame rate mode : Constant
Frame rate : 25.000 fps
Color space : YUV
Chroma subsampling : 4:2:0
Bit depth : 8 bits
Scan type : Progressive
Compression mode : Lossy
Bits/(Pixel*Frame) : 0.191
Stream size : 682 MiB (90%)
Writing library : XviD 1.2.1 (UTC 2008-12-04)
Default : Yes
Forced : No
Audio
ID : 2
Format : MPEG Audio
Format version : Version 1
Format profile : Layer 3
Mode : Joint stereo
Mode extension : MS Stereo
Muxing mode : Header stripping
Codec ID : A_MPEG/L3
Codec ID/Hint : MP3
Duration : 1h 5mn
Bit rate mode : Constant
Bit rate : 128 Kbps
Channel(s) : 2 channels
Sampling rate : 44.1 KHz
Compression mode : Lossy
Stream size : 59.5 MiB (8%)
Writing library : LAME3.98.2
Default : Yes
Forced : No
Text
ID : 3
Format : UTF-8
Codec ID : S_TEXT/UTF8
Codec ID/Info : UTF-8 Plain Text
Default : Yes
Forced : No

Сранвение с оригиналом

Скринлист

Скриншоты






cd Рип дополнительно залит на mail.ru cd2
[Profile] [PM]
Display posts:    
Reply to topic

Current time is: 10-Dec 22:53

All times are UTC + 3



You cannot post new topics in this forum
You cannot reply to topics in this forum
You cannot edit your posts in this forum
You cannot delete your posts in this forum
You cannot vote in polls in this forum
You cannot attach files in this forum
You cannot download files in this forum