Команда ниндзя ученых Гатчаман (Фильм) / Kagaku Ninja Tai Gatchaman Movie (Ториуми Хисаюки) [1978 г., фантастика, DVDRip] АО (Трамвай-фильм)

Reply to topic
 
Author Message

Трамвай-фильм ®

Gender: Male

Longevity: 4 years 9 months

Posts: 1454

Location: Россия

Post 11-Aug-2014 16:45

[Quote]

Команда ниндзя ученых Гатчаман (Фильм) / Kagaku Ninja Tai Gatchaman Movie
Год выпуска: 1978
Страна: Япония, Tatsunoko Productions Co. Ltd.
Жанр: фантастика
Продолжительность: 01:50:33
Перевод: Авторский одноголосый Трамвай фильм
Режиссер: Ториуми Хисаюки
Описание: Двухчасовое изложение 105 серийного мультсериала о противостоянии военизировано-террористической группировки "Галактор", под руководством Берга Каце и Соусая Х с Международной научной организацией, в лице двух отрядов Доктора Намбу: Команды ниндзей-ученых, собственно и эскадрона "Красный Импульс".
Доп. информация: Решил выложить, по скольку
1. Мой самый удачный релиз с точки зрения качества видео
2. Что бы знали откуда пошла недавняя игровая-поделка
Качество: DVDRip
Формат: AVI
Видео кодек: XviD
Аудио кодек: MP3
Видео: Xvid, 720x480, 2082 Кбит/с
Аудио: MPEG3, 160 Кбит/с, 2 канала


Работа над релизом:


Пример русской озвучки

Дополнительно

Знаете ли вы, что...

Это самая долгоживущая франшиза от Татсуноко, которая переиздавалась 8 раз: 1й, 2й и 3й сезоны, американская версия "Битва планет", собственно Полнометражка, ОВА, Полнометражный игровой фильм. А так же масса ответвлений и пародий.

Отзывы

Рецензия

MediaInfo

Format : AVI
Format/Info : Audio Video Interleave
Format profile : OpenDML
File size : 1.74 GiB
Duration : 1h 50mn
Overall bit rate : 2 258 Kbps
Video #0
ID : 0
Format : MPEG-4 Visual
Format profile : Simple@L3
Format settings, BVOP : No
Format settings, QPel : No
Format settings, GMC : No warppoints
Format settings, Matrix : Default (H.263)
Codec ID : XVID
Codec ID/Hint : XviD
Duration : 1h 50mn
Bit rate : 2 082 Kbps
Width : 720 pixels
Height : 480 pixels
Display aspect ratio : 3:2
Frame rate : 23.976 fps
Original frame rate : 23.000 fps
Standard : NTSC
Color space : YUV
Chroma subsampling : 4:2:0
Bit depth : 8 bits
Scan type : Progressive
Compression mode : Lossy
Bits/(Pixel*Frame) : 0.251
Stream size : 1.61 GiB (92%)
Writing library : XviD 1.2.1 (UTC 2008-12-04)
Audio #1
ID : 1
Format : MPEG Audio
Format version : Version 1
Format profile : Layer 3
Mode : Joint stereo
Mode extension : MS Stereo
Codec ID : 55
Codec ID/Hint : MP3
Duration : 1h 50mn
Bit rate mode : Constant
Bit rate : 160 Kbps
Channel(s) : 2 channels
Sampling rate : 44.1 KHz
Compression mode : Lossy
Stream size : 127 MiB (7%)
Alignment : Aligned on interleaves
Interleave, duration : 26 ms (0.63 video frame)
Writing library : LAME3.98

Скринлист

Скриншоты



cd Рип дополнительно залит на mail.ru cd2
[Profile] [PM]
Display posts:    
Reply to topic

Current time is: 26-May 10:06

All times are UTC + 3



You cannot post new topics in this forum
You cannot reply to topics in this forum
You cannot edit your posts in this forum
You cannot delete your posts in this forum
You cannot vote in polls in this forum
You cannot attach files in this forum
You cannot download files in this forum