The Fantastic Journey / e00-09 / 1977

Topic locked
 
Author Message

admin ®

Gender: Male

Longevity: 6 years 9 months

Posts: 4725

Location: Україна

Post 10-Aug-2014 10:34

[Quote]

The Fantastic Journey / e00-09 / 1977
Год выпуска:
Страна: США
Жанр:
Продолжительность: примерно 9 часов (1 х 01:10:00, 9 х 00:46:00)
Научная экспедиция, работающая в Атлантическом океане, пропадает в Бермудском треугольнике и оказывается на острове, которого нет на картах. Там они встречают путешественников из других планет, времен и измерений, попавших в ту же ловушку. И теперь они вместе скользят через порталы из одного измерения в другое в надежде найти портал, ведущий домой.


Список эпизодов

Season 1
S1, Ep13 Feb. 1977 Vortex
A group of passengers on their way to have a vacation become shipwrecked on a strange island where people from all times and dimensions are trapped.
S1, Ep210 Feb. 1977 Atlantium
Add a Plot
S1, Ep317 Feb. 1977 Beyond the Mountain
Varian, Fred, Scott and Liana are separated after another strange storm. Liana meets a strange man who runs an ideal Utopia, while the other find themselves in a swamp with strange green people who want vengeance on the strange man named, Jonathan Willoway.
S1, Ep424 Feb. 1977 Children of the Gods
Add a Plot
S1, Ep510 Mar. 1977 A Dream of Conquest
Willoway agrees to help a woman bring down a tyrant who plans to conquer the zones on the island by getting close to him, making his oblivious companions look down on him.
S1, Ep624 Mar. 1977 An Act of Love
Under the influence of a drug, Varian becomes infatuated with a woman who's people practice human sacrifice.
S1, Ep731 Mar. 1977 Funhouse
The group comes upon a seemingly abandoned amusement park and Willoway is in danger when the cursed magician that runs it to attract visitors tries to posses him.
S1, Ep87 Apr. 1977 Turnabout
Add a Plot
S1, Ep921 Apr. 1977 Riddles
Add a Plot
S1, Ep1016 Jun. 1977 The Innocent Prey
A vessel from the future that is used for transporting prisoners is pulled into the triangle and crashes. The prisoners get free and kill the guards. When the travelers come across them, the prisoners have assumed the guise of the guards. Later they come across a colony of pacifists who live an idyllic existence. When they display their abilities, one of the prisoners sees how can it profit them so he sets to possess the source at an cost. And when he kills one of the colonists and they accuse him, the leader upon hearing his proclamation of innocence decides to end ...

MediaInfo

Общее
Полное имя : E:\0000\The Fantastic Journey 1977\The Fantastic Journey [1x00] [Pilot] Vortex (xvid-eng).avi
Формат : AVI
Формат/Информация : Audio Video Interleave
Размер файла : 525 Мбайт
Продолжительность : 1 ч. 10 м.
Режим общего битрейта : Переменный
Общий поток : 1043 Кбит/сек
Программа кодирования : VirtualDubMod 1.5.10.1 (build 2439/release)
Библиотека кодирования : VirtualDubMod build 2439/release
Видео
Идентификатор : 0
Формат : MPEG-4 Visual
Профиль формата : Advanced Simple@L5
Параметр BVOP формата : 1
Параметр QPel формата : Нет
Параметр GMC формата : Без точки перехода
Параметр матрицы формата : Default (MPEG)
Идентификатор кодека : XVID
Идентификатор кодека/Подсказка : XviD
Продолжительность : 1 ч. 10 м.
Битрейт : 892 Кбит/сек
Ширина : 512 пикселей
Высота : 384 пикселя
Соотношение сторон : 4:3
Частота кадров : 25,000 кадров/сек
Цветовое пространство : YUV
Субдискретизация насыщенности : 4:2:0
Битовая глубина : 8 бит
Тип развёртки : Прогрессивная
Метод сжатия : С потерями
Бит/(Пиксели*Кадры) : 0.182
Размер потока : 449 Мбайт (86%)
Библиотека кодирования : XviD 1.0.2 (UTC 2004-08-29)
Аудио
Идентификатор : 1
Формат : MPEG Audio
Версия формата : Version 1
Профиль формата : Layer 3
Режим : Joint stereo
Расширение режима : MS Stereo
Идентификатор кодека : 55
Идентификатор кодека/Подсказка : MP3
Продолжительность : 1 ч. 10 м.
Вид битрейта : Переменный
Битрейт : 138 Кбит/сек
Номинальный битрейт : 128 Кбит/сек
Каналы : 2 канала
Частота : 48,0 КГц
Метод сжатия : С потерями
Размер потока : 69,3 Мбайт (13%)
Выравнивание : Соединение по промежуткам
Продолжительность промежутка : 24 мс. (0,60 видеокадр)
Время предзагрузки промежутка : 395 мс.
Библиотека кодирования : LAME3.95
Настройки программы : -m j -V 4 -q 2 -lowpass 17.5 --abr 128

Скринлист 1

Скринлист 2

Скринлист 3



Last edited by admin on 2014-08-12 09:47; edited 4 times in total
[Profile] [PM]

admin ®

Gender: Male

Longevity: 6 years 9 months

Posts: 4725

Location: Україна

Post 10-Aug-2014 10:36 (after 1 minute)

[Quote]

Может кто встречал ДВД или качество хоть немного лучше?
[Profile] [PM]

Guest

Gender: Unknown

Post 11-Aug-2014 17:50 (after 1 day 7 hours)

[Quote]

admin,
Он не выходил на двд . Знаю стопроцентно . А это что на перевод планируется отдать?
 

admin ®

Gender: Male

Longevity: 6 years 9 months

Posts: 4725

Location: Україна

Post 11-Aug-2014 18:05 (after 15 minutes)

[Quote]

Да. После первого сезона гигантов.
Меня смутил постер от 5-тидискового издания ДВД
[Profile] [PM]

Guest

Gender: Unknown

Post 11-Aug-2014 21:14 (after 3 hours)

[Quote]

admin, Еще бы ссыль найти на этот постер.Это и может фотожаба быть . Поищу попробую . А кому отдавать собираетесь ?? Попробую подержать финансово
 

Guest

Gender: Unknown

Post 11-Aug-2014 21:23 (after 8 minutes)

[Quote]

Вот такая фича есть . Которой нет . http://www.amazon.com/Fantastic-Journey-All-10-Epis...antastic+Journey
 

k-center

Gender: Male

Longevity: 6 years

Posts: 181

Location: Украина

Post 12-Aug-2014 09:27 (after 12 hours)

[Quote]

Предлагаю перевод аннотации:
Научная экспедиция, работающая в Атлантическом океане, пропадает в Бермудском треугольнике и оказывается на острове, которого нет на картах. Там они встречают путешественников из других планет, времен и измерений, попавших в ту же ловушку. И теперь они вместе скользят через порталы из одного измерения в другое в надежде найти портал, ведущий домой.
[Profile] [PM]

admin ®

Gender: Male

Longevity: 6 years 9 months

Posts: 4725

Location: Україна

Post 11-Dec-2014 22:58 (after 3 months 30 days)

[Quote]

http://kosmoaelita.com/viewtopic.php?t=1399
[Profile] [PM]

bot

Post 11-Dec-2014 22:58 (after 10 seconds)

Топик был перенесен из форума Сбор средств на перевод фильмов в форум Мусорка-Архив 2014
admin
 
Display posts:    
Topic locked

Current time is: 18-Jun 00:39

All times are UTC + 3



You cannot post new topics in this forum
You cannot reply to topics in this forum
You cannot edit your posts in this forum
You cannot delete your posts in this forum
You cannot vote in polls in this forum
You cannot attach files in this forum
You cannot download files in this forum