Атомная подводная лодка / The Atomic Submarine / Monsters and Madmen (Спенсер Гордон Беннет) [1960 г., Фантастика, триллер, DVDRip] ЛО (GalVid), СТ

Reply to topic
 
Author Message

admin ®

Gender: Male

Longevity: 7 years 3 months

Posts: 4813

Post 13-Sep-2012 03:10

[Quote]

Атомная подводная лодка / The Atomic Submarine / Monsters and Madmen
Год выпуска: 1960
Страна: США, Gorham Productions
Жанр: Фантастика, триллер
Продолжительность: 01:12:13
Перевод: Любительский (одноголосый) GalVid
Режиссер: Спенсер Гордон Беннет
В ролях: Артур Франц, Дик Форан, Бретт Хэлси, Пол Дубов, Боб Стил, Виктор Варкони, Джои Лэнсинг, Селмер Джексон, Джек Мулхолл, Жан Мурхед
Описание: Американская атомная субмарина отправляется с разведывательной миссией на участок арктических морей, где участились загадочные случаи исчезновения судов и подводных лодок. Оказалось, что в причинах всех бед было виновно одноглазое инопланетное существо...
Качество: DVDRip
Формат: MKV
Видео: x264, 1119 Кбит/с, 720x540, 23,976 кадра/сек, crf=20
Аудио 1: Русский (AC3, 2 ch, 192 Кбит/с)
Аудио 2: Английский (AC3, 2 ch, 192 Кбит/с)
Субтитры : Русские, английские

Релиз

Рип с ДВД5, монтаж и подгонка дорожек - sasha200720, качество рипа - crf=20
Перевод: Marfenarus (C)
Озвучка: GalVidДорожку с русским звуком пришлось компрессировать, так как ориг. звук был почти не слышен.Оригинальная озвучка оставлена второй дорожкой.
Субтитры также представлены в двух форматах.
Сравнение с рутрекером 1
Сравнение с рутрекером 2
Для Украины: рип и ДВД5 дополнительно залиты в файлохранилище
Для удаления и добавления дорожек в mkv используйте бесплатную mkvmerge GUI 5.80

Дополнительно

Другие названия:
Atomubåt anfaller Sweden
Atomubåten Sweden
Auf U-17 ist die Hölle los West Germany
Auf der U 17 ist die Hölle los Germany (TV title)
El submarino atómico Argentina
Il sommergibile atomico Italy (TV title)
La guerra di domani Italy
The Atomic Sub USA (alternative title)

Рецензия

Американское правительство посылает к северному полюсу атомную подводную лодку «Тигровая акула» с командиром Дэном Вендовером на борту, чтобы она выяснила причину таинственного исчезновения в этих местах восьми кораблей и нескольких подводных лодок. После долгого и утомительного путешествия герои достигают цели назначения, где с огромным удивлением обнаруживают, что причиной исчезновения кораблей является летающий корабль инопланетян, скрывающийся под толщей льда…
Интересно, что в трейлере фильма сознательно были опущены фантастические элементы, поэтому по нему картину можно были принять за военный боевик. Картина послужила источником вдохновения для создания известного телевизионного сериала «Путешествие ко дну моря» (1964-68). Первоначально в режиссерское кресло должен был Эдвард Кан («Ужас из космоса», 1958; «Невидимые пришельцы», 1959). Продюсер фильма Алекс Гордон рассказывал, что за один съемочный день в среднем успевали снять в 50-ти разных декорациях. Бюджет фильма составил 135 тысяч долларов. Без оценки

MediaInfo

Общее
Уникальный идентификатор : 220689420395223491669289490189656956986 (0xA6073C7F217D9B53AF25A4BDD4AAA03A)
Полное имя : E:\Atomnaja.podvodnaja.lodka.1958.x264.DVDRip.sasha20072007.mkv
Формат : Matroska
Версия формата : Version 2
Размер файла : 995 Мбайт
Продолжительность : 1 ч. 12 м.
Общий поток : 1925 Кбит/сек
Название фильма : The atomic submarine / Атомная подводная лодка / rip by sasha20072007
Дата кодирования : UTC 2012-04-23 22:46:14
Программа кодирования : mkvmerge v5.5.0 ('Healer') built on Apr 16 2012 15:39:18
Библиотека кодирования : libebml v1.2.3 + libmatroska v1.3.0
Attachment : Yes / Yes / Yes
Видео
Идентификатор : 1
Формат : AVC
Формат/Информация : Advanced Video Codec
Профиль формата : High@L4.1
Параметр CABAC формата : Да
Параметр ReFrames формата : 10 кадров
Идентификатор кодека : V_MPEG4/ISO/AVC
Продолжительность : 1 ч. 12 м.
Битрейт : 1119 Кбит/сек
Ширина : 720 пикселей
Высота : 540 пикселей
Соотношение сторон : 4:3
Частота кадров : 23,976 кадра/сек
Цветовое пространство : YUV
Субдискретизация насыщенности : 4:2:0
Битовая глубина : 8 бит
Тип развёртки : Прогрессивная
Бит/(Пиксели*Кадры) : 0.120
Размер потока : 578 Мбайт (58%)
Библиотека кодирования : x264 core 120 r2164 da19765
Настройки программы : cabac=1 / ref=10 / deblock=1:-2:-2 / analyse=0x3:0x133 / me=umh / subme=11 / psy=1 / psy_rd=1.00:0.20 / mixed_ref=1 / me_range=24 / chroma_me=1 / trellis=2 / 8x8dct=1 / cqm=0 / deadzone=21,11 / fast_pskip=1 / chroma_qp_offset=-3 / threads=12 / sliced_threads=0 / nr=0 / decimate=1 / interlaced=0 / bluray_compat=0 / constrained_intra=0 / bframes=10 / b_pyramid=2 / b_adapt=2 / b_bias=0 / direct=3 / weightb=1 / open_gop=0 / weightp=2 / keyint=220 / keyint_min=22 / scenecut=40 / intra_refresh=0 / rc_lookahead=60 / rc=crf / mbtree=1 / crf=20.0 / qcomp=0.60 / qpmin=0 / qpmax=69 / qpstep=4 / vbv_maxrate=17500 / vbv_bufsize=14000 / crf_max=0.0 / nal_hrd=none / ip_ratio=1.27 / aq=1:1.00
Default : Да
Forced : Нет
Аудио #1
Идентификатор : 2
Формат : AC-3
Формат/Информация : Audio Coding 3
Расширение режима : CM (complete main)
Параметр Endianness формата : Big
Идентификатор кодека : A_AC3
Продолжительность : 1 ч. 12 м.
Вид битрейта : Постоянный
Битрейт : 192 Кбит/сек
Каналы : 2 канала
Расположение каналов : Front: L R
Частота : 48,0 КГц
Битовая глубина : 16 бит
Метод сжатия : С потерями
Размер потока : 99,2 Мбайт (10%)
Заголовок : Русский (GalVid) компрессированный
Язык : Russian
Default : Да
Forced : Да
Аудио #2
Идентификатор : 3
Формат : AC-3
Формат/Информация : Audio Coding 3
Расширение режима : CM (complete main)
Параметр Endianness формата : Big
Идентификатор кодека : A_AC3
Продолжительность : 1 ч. 12 м.
Вид битрейта : Постоянный
Битрейт : 192 Кбит/сек
Каналы : 2 канала
Расположение каналов : Front: L R
Частота : 48,0 КГц
Битовая глубина : 16 бит
Метод сжатия : С потерями
Размер потока : 99,2 Мбайт (10%)
Заголовок : Русский (GalVid)
Язык : Russian
Default : Нет
Forced : Да
Аудио #3
Идентификатор : 4
Формат : AC-3
Формат/Информация : Audio Coding 3
Расширение режима : CM (complete main)
Параметр Endianness формата : Big
Идентификатор кодека : A_AC3
Продолжительность : 1 ч. 12 м.
Вид битрейта : Постоянный
Битрейт : 192 Кбит/сек
Каналы : 2 канала
Расположение каналов : Front: L R
Частота : 48,0 КГц
Битовая глубина : 16 бит
Метод сжатия : С потерями
Размер потока : 99,2 Мбайт (10%)
Заголовок : Eng
Язык : English
Default : Нет
Forced : Нет
Аудио #4
Идентификатор : 5
Формат : AC-3
Формат/Информация : Audio Coding 3
Расширение режима : CM (complete main)
Параметр Endianness формата : Big
Идентификатор кодека : A_AC3
Продолжительность : 1 ч. 12 м.
Вид битрейта : Постоянный
Битрейт : 192 Кбит/сек
Каналы : 1 канал
Расположение каналов : Front: C
Частота : 48,0 КГц
Битовая глубина : 16 бит
Метод сжатия : С потерями
Размер потока : 99,2 Мбайт (10%)
Заголовок : Eng (comment)
Язык : English
Default : Нет
Forced : Нет
Текст #1
Идентификатор : 6
Формат : VobSub
Идентификатор кодека : S_VOBSUB
Идентификатор кодека/Информация : The same subtitle format used on DVDs
Заголовок : Русский (Marfenarus (C) VobSub
Язык : Russian
Default : Да
Forced : Нет
Текст #2
Идентификатор : 7
Формат : UTF-8
Идентификатор кодека : S_TEXT/UTF8
Идентификатор кодека/Информация : UTF-8 Plain Text
Заголовок : Русский (Marfenarus (C) srt
Язык : Russian
Default : Нет
Forced : Нет
Текст #3
Идентификатор : 8
Формат : VobSub
Идентификатор кодека : S_VOBSUB
Идентификатор кодека/Информация : The same subtitle format used on DVDs
Язык : English
Default : Нет
Forced : Нет
Меню
00:00:00.000 : en:01
00:05:00.233 : en:02
00:10:00.466 : en:03
00:15:10.933 : en:04
00:20:00.833 : en:05
00:25:00.333 : en:06
00:30:00.599 : en:07
00:35:00.266 : en:08
00:40:00.599 : en:09
00:45:00.000 : en:10
00:50:00.233 : en:11
00:55:00.466 : en:12
01:00:10.933 : en:13
01:10:00.833 : en:14
01:15:00.333 : en:15
01:20:00.599 : en:16
01:25:00.266 : en:17

Скриншоты



cd Рип дополнительно залит на mail.ru cd2


Last edited by admin on 2014-07-20 07:28; edited 1 time in total
[Profile] [PM]

Guest

Gender: Unknown

Post 20-Jul-2014 04:31 (after 1 year 10 months)

[Quote]

Летающая тарелка под водой - пожалуй такого больше нигде не увидишь.
 

Трамвай-фильм

Gender: Male

Longevity: 5 years 4 months

Posts: 1711

Location: Россия

Post 01-Mar-2016 21:24 (after 1 year 7 months)

[Quote]

Несмотря на все сценарные ляпы один из лучших фильмов с захватывающим сюжетом: я то думал - опять русские виноваты.
[Profile] [PM]
Quick Reply

Name:

            
Heads necessary to send messages to enable JavaScript
Display posts:    
Reply to topic

Current time is: 16-Dec 08:28

All times are UTC + 3



You cannot post new topics in this forum
You can reply to topics in this forum
You cannot edit your posts in this forum
You cannot delete your posts in this forum
You cannot vote in polls in this forum
You cannot attach files in this forum
You cannot download files in this forum