Космические воины / Space Warriors (Шон МакНамара / Sean McNamara) [2013 г., Фантастика, семейный, BDRip-720p] ПМ

Reply to topic
 
Author Message

admin ®

Gender: Male

Longevity: 7 years 3 months

Posts: 4812

Post 25-Jul-2014 20:58

[Quote]

Космические воины / Space Warriors
Год выпуска: 2013
Страна: США, ARC Entertainment (II), GPA Entertainment, Meteor 17
Жанр: Фантастика, семейный
Продолжительность: 01:33:21
Перевод: Профессиональный (многоголосый, закадровый)
Режиссер: Шон МакНамара / Sean McNamara
В ролях:
Thomas Horn ... Jimmy
Josh Lucas ... Col. Roy Manley
Mira Sorvino ... Sally Hawkins
Dermot Mulroney ... Andy Hawkins
Danny Glover ... Commander
Ryan Simpkins ... Lacey Myers
Michael Zhang ... Bao Yuen
Nicholas Lobue ... Sergei Petrov (as Nick Lobue)
Savannah Jayde ... Dani Davis
Grayson Russell ... Russell 'Rusty' Riggs
Booboo Stewart ... Conway
Thomas Kasp ... Hunter
Sahana Srinivasan ... Chandra
Chris Ashworth ... Cosmonaut Yuri
Rico Ball ... Astronaut Michael
Описание: "Космические воины" - это название отряда в космическом лагере NASA. Пятеро подростков 14-ти - 15-ти лет из разных стран выигрывают поездку в этот отряд. Здесь им придется не просто жить, а на деле познавать все трудности освоения космического пространства и, более того, соревноваться в различных состязаниях со старшими по возрасту ребятами. Но если в силе и выносливости они пока уступают, то умении быстро принимать верное решение, главные герои могут дать фору многим. Поэтому, когда возникла реальная угроза столкновения космической станции с обломками других аппаратов, "Космические воины" быстро смогли принять единственное верное решение, которое позволило спасти станцию и жизнь астронавтов.
Качество: BDRip-720p
Формат: MKV
Видео: x264, 6873 кбит/с, 1280x536, 23.976 к/с, crf=18
Аудио 1: Русский ПМ (AC3, 2 ch, 192 Кбит/с)
Аудио 2: Английский (DTS, 6 ch, 1510 Кбит/с)
Субтитры : Английские
Работа над релизом:
Видеоряд найден в юзенете



Трейлер

Дополнительно

рейтинг MPAA рекомендуется присутствие родителей
Also Known As (AKA)
France (TV title) Les sauveurs de l'espace
================================================
Для Украины: рип и оригинальный ДВД дополнительно залиты в файлохранилище
Для удаления,добавления и извлечения дорожек в mkv используйте бесплатную портативную mkvmerge GUI 6.6.0
Для присоединения потом дорожек к avi воспользуйтесь VirtualDubMod

Знаете ли вы, что...

Отзывы

Рецензия

MediaInfo

Общее
Уникальный идентификатор : 190021959057605158894602434173942421734 (0x8EF4E5EA25142E47A8BE2F8F555CD8E6)
Полное имя : F:\Space warriors 2013.x264.BDRip.720p.Rus.kosmoaelita.mkv
Формат : Matroska
Версия формата : Version 4 / Version 2
Размер файла : 5,59 Гбайт
Продолжительность : 1 ч. 33 м.
Общий поток : 8575 Кбит/сек
Название фильма : Space warriors 2013 / kosmoaelita
Дата кодирования : UTC 2014-07-25 17:40:50
Программа кодирования : mkvmerge v6.6.0 ('The Edge Of The In Between') built on Dec 7 2013 13:21:48
Библиотека кодирования : libebml v1.3.0 + libmatroska v1.4.1
Видео
Идентификатор : 1
Формат : AVC
Формат/Информация : Advanced Video Codec
Профиль формата : High@L4.1
Параметр CABAC формата : Да
Параметр ReFrames формата : 5 кадров
Идентификатор кодека : V_MPEG4/ISO/AVC
Продолжительность : 1 ч. 33 м.
Битрейт : 6873 Кбит/сек
Ширина : 1280 пикселей
Высота : 536 пикселей
Соотношение сторон : 2,40:1
Режим частоты кадров : Постоянный
Частота кадров : 23,976 кадра/сек
Цветовое пространство : YUV
Субдискретизация насыщенности : 4:2:0
Битовая глубина : 8 бит
Тип развёртки : Прогрессивная
Бит/(Пиксели*Кадры) : 0.418
Размер потока : 4,37 Гбайт (78%)
Библиотека кодирования : x264 core 142 r2431 ac76440
Настройки программы : cabac=1 / ref=5 / deblock=1:0:0 / analyse=0x3:0x133 / me=umh / subme=8 / psy=1 / psy_rd=1.00:0.00 / mixed_ref=1 / me_range=16 / chroma_me=1 / trellis=1 / 8x8dct=1 / cqm=0 / deadzone=21,11 / fast_pskip=0 / chroma_qp_offset=-2 / threads=6 / lookahead_threads=1 / sliced_threads=0 / nr=0 / decimate=1 / interlaced=0 / bluray_compat=0 / constrained_intra=0 / bframes=3 / b_pyramid=2 / b_adapt=1 / b_bias=0 / direct=1 / weightb=1 / open_gop=0 / weightp=2 / keyint=250 / keyint_min=23 / scenecut=40 / intra_refresh=0 / rc_lookahead=40 / rc=2pass / mbtree=1 / bitrate=6873 / ratetol=1.0 / qcomp=0.60 / qpmin=0 / qpmax=69 / qpstep=4 / cplxblur=20.0 / qblur=0.5 / ip_ratio=1.40 / aq=1:1.00
Язык : English
Default : Да
Forced : Нет
Аудио #1
Идентификатор : 2
Формат : AC-3
Формат/Информация : Audio Coding 3
Расширение режима : CM (complete main)
Параметр Endianness формата : Big
Идентификатор кодека : A_AC3
Продолжительность : 1 ч. 33 м.
Вид битрейта : Постоянный
Битрейт : 192 Кбит/сек
Каналы : 2 канала
Расположение каналов : Front: L R
Частота : 48,0 КГц
Битовая глубина : 16 бит
Метод сжатия : С потерями
Размер потока : 128 Мбайт (2%)
Заголовок : Русский ПМ
Язык : Russian
Default : Да
Forced : Нет
Аудио #2
Идентификатор : 3
Формат : DTS
Формат/Информация : Digital Theater Systems
Режим : 16
Параметр Endianness формата : Big
Идентификатор кодека : A_DTS
Продолжительность : 1 ч. 33 м.
Вид битрейта : Постоянный
Битрейт : 1509 Кбит/сек
Каналы : 6 каналов
Расположение каналов : Front: L C R, Side: L R, LFE
Частота : 48,0 КГц
Битовая глубина : 16 бит
Метод сжатия : С потерями
Размер потока : 1008 Мбайт (18%)
Заголовок : English DTS
Язык : English
Default : Нет
Forced : Нет
Текст
Идентификатор : 4
Формат : UTF-8
Идентификатор кодека : S_TEXT/UTF8
Идентификатор кодека/Информация : UTF-8 Plain Text
Заголовок : English
Язык : English
Default : Нет
Forced : Нет

Скриншоты















cd Рип дополнительно залит на mail.ru cd2
[Profile] [PM]
Display posts:    
Reply to topic

Current time is: 11-Dec 13:58

All times are UTC + 3



You cannot post new topics in this forum
You cannot reply to topics in this forum
You cannot edit your posts in this forum
You cannot delete your posts in this forum
You cannot vote in polls in this forum
You cannot attach files in this forum
You cannot download files in this forum