Чужеродный Рассвет / Alien Dawn (Neil Johnson / Нил Джонсон) [2012 г., фантастика, BDRip-1080p] ЛО (den904), СТ (koto_2008 (А. Самсонов)

Reply to topic
 
Author Message

admin ®

Gender: Male

Longevity: 6 years 10 months

Posts: 4725

Location: Україна

Post 06-Jul-2014 18:45

[Quote]

Чужеродный Рассвет / Alien Dawn
Релиз - kosmoaelita. com
Год выпуска: 2012
Страна: США, Morphius Film, Starlight Entertainment
Жанр: фантастика
Продолжительность: 01:21:04
Перевод: ЛО den904 по субтитрам от koto 2008 (Андрей Самсонов)
Режиссер: Neil Johnson / Нил Джонсон
В ролях: Rachelle Dimaria ... Marissa J. McKellen
Alex Bell ... Anders Kaczynski
Michael Abruscato ... Roger Kaczynski
Cynthia Martin ... Joni Mitchell
Tiffany Martin ... Tiffany Lewis
Tiffany Adams ... Sera Michaels
Brooke Lewis ... Chiara Pelligrini
Daniel Bridges ... Rennick Martin (as Dan Bridges)
Giovanni V. Giusti ... Pierpaolo DeMejo
Angela T. Baesa ... Tamika Laan
Iva Franks Singer ... Field Reporter / Rhonda Palin
Barry Alexander ... Flight Lieutenant Michaels
Neil Johnson ... David Coverdale
Marc Scott Zicree ... Brad Raybury (as Marc Zicree)
Alana Kearns-Green ... Exploding Christian Woman
Описание:Низкобюджетная война миров.
Поскольку гигантские машины пришельцев порабощают и откармливают на убой человечество, то несколько оставшихся в живых людей объединяются, чтобы сформировать вооруженное ополчение, которое будет последним, способным противостоять полному уничтожению человечества.

Релиз

Качество: BDRip-1080p
Формат: MKV
Видео: x264, 8142 Кбит/сек, 1920x1048, 23.976 к/с
Аудио 1: Русский ЛО (den904)(DTS, 6 ch, 1510 Кбит/с)
Аудио 2: Английский (DTS, 6 ch, 1510 Кбит/с)
Субтитры : Русский (koto_2008, kosmoaelita), английский
Работа над релизом:
Релиз kosmoaelita
Рип найден в юзенете.
Перевод с англ. субтитров по заказу kosmoaelita - koto 2008 (Андрей Самсонов)
Русская озвучка по заказу kosmoaelita - den904



Трейлер

Пример русских озвучки и субтитров

Дополнительно

бюджет $1 850 000
рейтинг MPAA лицам до 17 лет обязательно присутствие взрослого
Also Known As (AKA)
(original title) Alien Dawn
France Battle Invasion
USA (alternative title) (English title) Tripod War
================================================
Для Украины: рип и оригинальный ДВД дополнительно залиты в файлохранилище
Для удаления,добавления и извлечения дорожек в mkv используйте бесплатную портативную mkvmerge GUI 6.6.0
Для присоединения потом дорожек к avi воспользуйтесь VirtualDubMod

MediaInfo

Общее
Уникальный идентификатор : 195401937978131679973626058654465878809 (0x93010B5ACE4FAF619283DE3220736B19)
Полное имя : N:\Alien Dawn 2012.x264.BDRip.1080p.Rus.kosmoaelita.mkv
Формат : Matroska
Версия формата : Version 4 / Version 2
Размер файла : 6,32 Гбайт
Продолжительность : 1 ч. 21 м.
Общий поток : 11,2 Мбит/сек
Название фильма : Чужеродній рассвет / Alien Dawn 2012.x264.BDRip.1080p / kosmoaelita
Дата кодирования : UTC 2014-07-12 23:23:28
Программа кодирования : mkvmerge v6.6.0 ('The Edge Of The In Between') built on Dec 7 2013 13:21:48
Библиотека кодирования : libebml v1.3.0 + libmatroska v1.4.1
Attachment : Yes / Yes
Видео
Идентификатор : 1
Формат : AVC
Формат/Информация : Advanced Video Codec
Профиль формата : High@L4.1
Параметр CABAC формата : Да
Параметр ReFrames формата : 4 кадра
Идентификатор кодека : V_MPEG4/ISO/AVC
Продолжительность : 1 ч. 21 м.
Битрейт : 8142 Кбит/сек
Ширина : 1920 пикселей
Высота : 1048 пикселей
Соотношение сторон : 1,85:1
Режим частоты кадров : Постоянный
Частота кадров : 23,976 кадра/сек
Цветовое пространство : YUV
Субдискретизация насыщенности : 4:2:0
Битовая глубина : 8 бит
Тип развёртки : Прогрессивная
Бит/(Пиксели*Кадры) : 0.169
Размер потока : 4,49 Гбайт (71%)
Заголовок : Релиз www.kosmoaelita.com
Библиотека кодирования : x264 core 129 r2245 bc13772
Настройки программы : cabac=1 / ref=4 / deblock=1:0:0 / analyse=0x3:0x133 / me=umh / subme=7 / psy=1 / psy_rd=1.00:0.00 / mixed_ref=1 / me_range=16 / chroma_me=1 / trellis=1 / 8x8dct=1 / cqm=0 / deadzone=21,11 / fast_pskip=0 / chroma_qp_offset=-1 / threads=12 / lookahead_threads=2 / sliced_threads=0 / nr=0 / decimate=1 / interlaced=0 / bluray_compat=0 / constrained_intra=0 / bframes=3 / b_pyramid=2 / b_adapt=1 / b_bias=0 / direct=3 / weightb=1 / open_gop=0 / weightp=2 / keyint=240 / keyint_min=23 / scenecut=40 / intra_refresh=0 / rc_lookahead=40 / rc=2pass / mbtree=1 / bitrate=8142 / ratetol=1.0 / qcomp=0.60 / qpmin=10 / qpmax=51 / qpstep=4 / cplxblur=20.0 / qblur=0.5 / ip_ratio=1.40 / aq=1:1.00
Язык : English
Default : Да
Forced : Нет
Аудио #1
Идентификатор : 2
Формат : DTS
Формат/Информация : Digital Theater Systems
Режим : 16
Параметр Endianness формата : Big
Идентификатор кодека : A_DTS
Продолжительность : 1 ч. 21 м.
Вид битрейта : Постоянный
Битрейт : 1510 Кбит/сек
Каналы : 6 каналов
Расположение каналов : Front: L C R, Side: L R, LFE
Частота : 48,0 КГц
Битовая глубина : 16 бит
Метод сжатия : С потерями
Размер потока : 875 Мбайт (14%)
Заголовок : Русский ЛО (den904 для kosmoaelita.com)
Язык : Russian
Default : Да
Forced : Нет
Аудио #2
Идентификатор : 3
Формат : DTS
Формат/Информация : Digital Theater Systems
Режим : 16
Параметр Endianness формата : Big
Идентификатор кодека : A_DTS
Продолжительность : 1 ч. 21 м.
Вид битрейта : Постоянный
Битрейт : 1509 Кбит/сек
Каналы : 6 каналов
Расположение каналов : Front: L C R, Side: L R, LFE
Частота : 48,0 КГц
Битовая глубина : 24 бит
Метод сжатия : С потерями
Размер потока : 875 Мбайт (14%)
Заголовок : ENGLISH DTS
Язык : English
Default : Нет
Forced : Нет
Текст #1
Идентификатор : 4
Формат : VobSub
Режим смешивания : zlib
Идентификатор кодека : S_VOBSUB
Идентификатор кодека/Информация : The same subtitle format used on DVDs
Заголовок : Русский (kosmoaelita,koto_2008) VobSub
Язык : Russian
Default : Да
Forced : Нет
Текст #2
Идентификатор : 5
Формат : UTF-8
Идентификатор кодека : S_TEXT/UTF8
Идентификатор кодека/Информация : UTF-8 Plain Text
Заголовок : Русский (kosmoaelita,koto_2008) srt
Язык : Russian
Default : Нет
Forced : Нет
Текст #3
Идентификатор : 6
Формат : UTF-8
Идентификатор кодека : S_TEXT/UTF8
Идентификатор кодека/Информация : UTF-8 Plain Text
Язык : English
Default : Нет
Forced : Нет

Пример субтитров

1
00:00:36,300 --> 00:00:41,300
"Посвящается Кристалл"
2
00:00:56,324 --> 00:01:00,324
"День первый"
3
00:01:39,500 --> 00:01:44,500
"Чужеродный Рассвет" или
"Рассвет чужого солнца"
(Alien Dawn, 2012г)
4
00:01:50,025 --> 00:01:51,925
"День второй"
5
00:01:51,970 --> 00:01:57,170
<i>Сегодня 28 ноября, сейчас почти
6 часов утра.</i>
7
00:01:57,880 --> 00:02:01,830
Меня зовут
Марисса Жан МакКаллем ...
---------------------------------
1041
01:15:18,870 --> 01:15:20,640
Такого больше не будет!
1042
01:15:21,680 --> 01:15:23,710
Я не буду этого делать.
1043
01:15:25,780 --> 01:15:27,210
Так что, им придется уйти восвояси
1044
01:15:30,380 --> 01:15:31,880
или умереть.
1045
01:15:35,990 --> 01:15:37,920
Ведь мы движение сопротивления!


Last edited by admin on 2014-07-13 03:27; edited 8 times in total
[Profile] [PM]

Guest

Gender: Unknown

Post 06-Jul-2014 19:35 (after 49 minutes)

[Quote]

О, очередной Нил Джонсон. Мне нравится его отвага и подход к съёмкам, но... я не могу смотреть его фильмы.)) Только ранний Demons in My Head когда-то досмотрел до конца.
 

admin ®

Gender: Male

Longevity: 6 years 10 months

Posts: 4725

Location: Україна

Post 06-Jul-2014 20:40 (after 1 hour 5 minutes)

[Quote]

Посмотрел начало - для такого смешного бюджета - очень даже ничего
[Profile] [PM]

Guest

Gender: Unknown

Post 06-Jul-2014 20:49 (after 9 minutes)

[Quote]

Да, у него при микробюджетах эпический размах. На пределе возможностей работает, что очень круто. То есть это не обычные коммерческие поделки типа Asylum, а этакое современное жанровое авторское кино.
 

admin ®

Gender: Male

Longevity: 6 years 10 months

Posts: 4725

Location: Україна

Post 12-Jul-2014 23:32 (after 6 days)

[Quote]

Добавлена русская озвучка
DTS собирал впервые, может, что где накосячил
DTS-HD Master Audio Suite 2.60.22 Portable.exe
10мсек вырезал вначале и 8 добавил в конце. Собирал в обычный двдишный DTS (.cpt)
[Profile] [PM]
Display posts:    
Reply to topic

Current time is: 19-Jul 08:52

All times are UTC + 3



You cannot post new topics in this forum
You cannot reply to topics in this forum
You cannot edit your posts in this forum
You cannot delete your posts in this forum
You cannot vote in polls in this forum
You cannot attach files in this forum
You cannot download files in this forum