Этот Маленький Монстр / That Little Monster / 1994 / MKV, Eng

Reply to topic
DL-List and Torrent activity
Size:  664 MB   |    Registered:  5 years 1 month   |    Completed:  1 time

Seeder not seen: 4 years 6 months

 
   
 
 
 
Author Message

Guest ®

Gender: Unknown

Post 05-Jul-2014 10:55

[Quote]

Этот Маленький Монстр / That Little Monster
Comedy | Horror | Sci-Fi
Directors: Paul Bunnell
Writers: Paul Bunnell
Producers: Merrill P. Mack, Carl Mastromarino, Cristina Casanova Schweitzer
Composers: Jerry Danielsen
Cinematographers: Craig Bassuk
Runtime: 56mn
Country: USA
Language: English
http://www.imdb.com/title/tt0204676/
notes: Dual-Audio includes Directors Commentary
Снятый за 26 дней в течение почти четырех лет на черно-белые 16 миллиметров и менее чем за тридцать тысяч долларов, этот фильм был просто обречен на культ, чего авторы, собственно говоря, и добивались...
Пол Баннел, эксцентричный, но талантливый сценарист и режиссер (а еще продюсер и немного актер), изначально задумывал этот фильм как эпизод телевизионного сериала «Монстры», и все уже было на мази, но... неожиданно умирает продюсер сериала, что автоматически означает конец проекта. Но уж очень Полу нравился собственный сценарий, и слишком ему хотелось остаться в вечности, поэтому, скрепя сердце, он решает делать фильм самостоятельно, дешево, но зато уж как сердито! Так как денег особых никому не платили, снималось все мучительно долго, в соответствии со сложным графиком задействованных в проекте людей, среди которых на пару съемочных дней удалось выцепить и Реджи Бэннистера, знаменитого своей ролью продавца мороженого во всех фильмах сериала «Phantasm». Любовь Пола Баннела к film-noire, абсурдистским комедиям Бюнуэля, замысловатым мизансценам Линча и удивительным движениям камеры Ардженто просто-таки вопиюща в «Этом Маленьком Монстре» — фильме исключительно «визуальном», а не построенном на развитии истории. История в нем, конечно же, есть, но она настолько странна и необязательна, что, по сути дела, ее там особо и нет, она просто служит фоном для связки одной удивительной сцены с другой. Актеров в этом фильме всего четверо, а основных и того меньше, три, причем все они играют замечательно. Мелисса Баум к концу съемок была уже на пятом месяце беременности и не влезала в платье, которое носила в самом начале работы над фильмом (в этих эпизодах ее просто снимали с переднего ракурса, не показывая спину, на которой не сходилось платье ;)), однако сделала свою работу исключительно удачно, убедительно сыграв добродушную молодую няньку, попавшую в экстраординарные обстоятельства. Бывший мальчик-актер, начавший свою карьеру в паре диснеевских фильмов, Уильям Миллс, удивительно органичен и крайне забавен в роли мистера Уиллока, а пышных грудоформ Энди Веннинг удивительно подходит Миллсу в качестве экранной супруги, миссис Уиллок. Реджи Бэннистер как всегда очарователен, но у него тут всего несколько эпизодов и от силы пять минут экранного времени, что на фоне 56 минут общего хронометража, все-таки, немало.
Абсурдные диалоги и ситуации сдобрены немалым количеством черного юмора, фантастические элементы поданы гротескно, а местами это настоящий хоррор, переходящий в экзистенциальные дизайнерско-визуальные экзерсисы «а-ля Линч», показанные камерой, идущей по затейливому, причудливому маршруту. И все это визуальное черно-белое великолепие сопровождается завораживающей и очень удачной музыкой Джерри Даниелсена (Jerry Danielsen), постоянного композитора Пола Баннела. После нескольких неожиданных поворотов, зритель привыкает ничему не удивляться в этом фильме, хотя концовка у него просто бесподобна! Столь необычный и стильный кино-экзерсис не прошел незамеченным критикой (хотя массовый зритель, по очевидным причинам, этого фильма не видел) и в 1995-м году получил «Golden Scroll of Merit» от «Американской Академии Фантастических, Фэнтези и Хоррор фильмов». Изданный в 2002-м году на DVD культовой Elite Entertainment, отныне фильм доступен и широким массам поклонников кино, и если вы действительно «ценитель», то ознакомиться со столь экстравагантным творением просто ваш долг... Это если «давить пафос», а если говорить по-простому, то этот фильм в своем роде выдающийся, и посмотреть его действительно стоит, хотя бы ради «культового самообразования» ;)
Автор: Сергей Меренков
http://cult-cinema.ru/reviews/t/that_little_monster/
Тех. данные:
Format : Matroska
Format version : Version 2
File size : 664 MiB
Duration : 56mn 15s
Overall bit rate : 1 650 Kbps
Writing application : HandBrake 4762svn
Writing library : libmkv 0.6.5
Video
ID : 1
Format : AVC
Format/Info : Advanced Video Codec
Format profile : High@L3.0
Format settings, CABAC : Yes
Format settings, ReFrames : 4 frames
Codec ID : V_MPEG4/ISO/AVC
Duration : 56mn 15s
Bit rate : 1 280 Kbps
Width : 706 pixels
Height : 480 pixels
Display aspect ratio : 4:3
Original display aspect ratio : 4:3
Frame rate mode : Constant
Frame rate : 29.970 fps
Color space : YUV
Chroma subsampling : 4:2:0
Bit depth : 8 bits
Scan type : Progressive
Bits/(Pixel*Frame) : 0.126
Stream size : 496 MiB (75%)
Writing library : x264 core 125
Encoding settings : cabac=1 / ref=3 / deblock=1:0:0 / analyse=0x3:0x133 / me=umh / subme=10 / psy=1 / psy_rd=1.50:0.50 / mixed_ref=1 / me_range=16 / chroma_me=1 / trellis=2 / 8x8dct=1 / cqm=0 / deadzone=21,11 / fast_pskip=1 / chroma_qp_offset=-4 / threads=3 / lookahead_threads=1 / sliced_threads=0 / nr=0 / decimate=1 / interlaced=0 / bluray_compat=0 / constrained_intra=0 / bframes=3 / b_pyramid=2 / b_adapt=2 / b_bias=0 / direct=1 / weightb=1 / open_gop=0 / weightp=2 / keyint=240 / keyint_min=24 / scenecut=40 / intra_refresh=0 / rc_lookahead=10 / rc=abr / mbtree=1 / bitrate=1280 / ratetol=1.0 / qcomp=0.60 / qpmin=3 / qpmax=69 / qpstep=4 / ip_ratio=1.40 / aq=1:1.50
Language : English
Default : Yes
Forced : No
Color primaries : BT.601 NTSC
Transfer characteristics : BT.709
Matrix coefficients : BT.601
Audio #1
ID : 2
Format : AC-3
Format/Info : Audio Coding 3
Mode extension : CM (complete main)
Format settings, Endianness : Big
Codec ID : A_AC3
Duration : 56mn 15s
Bit rate mode : Constant
Bit rate : 192 Kbps
Channel(s) : 2 channels
Channel positions : Front: L R
Sampling rate : 48.0 KHz
Bit depth : 16 bits
Compression mode : Lossy
Stream size : 77.3 MiB (12%)
Language : English
Default : Yes
Forced : No
Audio #2
ID : 3
Format : AC-3
Format/Info : Audio Coding 3
Mode extension : CM (complete main)
Format settings, Endianness : Big
Codec ID : A_AC3
Duration : 56mn 15s
Bit rate mode : Constant
Bit rate : 192 Kbps
Channel(s) : 2 channels
Channel positions : Front: L R
Sampling rate : 48.0 KHz
Bit depth : 16 bits
Compression mode : Lossy
Stream size : 77.3 MiB (12%)
Language : English

Скриншоты



That-Little-Monster-(1994)(Includes-Director-Commentary).mkv.torrent
Torrent: Registered [ 2014-07-05 10:55 ]

Download .torrent

Download

13 KB

Status: * not checked
Completed: 1 times
Size: 664 MB
 
 
Display posts:    
Reply to topic

Current time is: 20-Aug 10:20

All times are UTC + 3



You cannot post new topics in this forum
You cannot reply to topics in this forum
You cannot edit your posts in this forum
You cannot delete your posts in this forum
You cannot vote in polls in this forum
You cannot attach files in this forum
You can download files in this forum