Время под огнем / Солдат времени / Час під вогнем / Time Under Fire (Скотт Ливай / Scott P. Levy, Трип Рид / Tripp Reed) [1997, Фантастика, боевик, DVDRip] ПД

Reply to topic
 
Author Message

admin ®

Gender: Male

Longevity: 7 years

Posts: 4725

Location: Україна

Post 11-Sep-2012 15:58

[Quote]

Время под огнем / Солдат времени / Час під вогнем / Time Under Fire
Страна: США
Жанр: Фантастика, боевик
Год выпуска: 1997
Продолжительность: 01:28:00
Перевод: Профессиональный двухголосый
Cубтитры: нет
Режиссер: Скотт Ливай / Scott P. Levy, Трип Рид / Tripp Reed
В ролях: Джефф Фейхи, Кимберли Стивенс, Чик Веннера, Ричард Тайсон, Брайан Крэнстон, Ларри Пойндекстер, Джей Аковоне, Линда Хоффман, Джек Коулман, Ричард Каммингс
Описание:Подводная лодка ВМФ США пропадает в бескрайних просторах океана. К спецслужбам попадает человек, утверждающий, что он из будущего. Ученые из Пентагона стоят перед завесой непознанного явления. Разрыв во времени, два поколения воинов в борьбе за контроль над прошлым... И разгадать эту загадку может лишь один человек - капитан подводной лодки (Джефф Фейхи).
Качество: DVDRip
Формат: MKV
Видео: x264, 1392 Кбит/с, 720x552 crf=21
Аудио 1: Русский (AC3, 2 ch, 192 Кбит/с)
Аудио 2: Украинский (AC3, 2 ch, 192 Кбит/с)
Аудио 3: Английский (AC3, 2 ch, 192 Кбит/с)
Аудио 2: Польский (AC3, 6 ch, 384 Кбит/с)


Пример русской озвучки

Релиз

Рип с ДВД5, монтаж и подгонка дорожек - sasha20072007, качество рипа - crf=21
Сравнение с рутрекером
Сравнение с исходником DVD5
Для Украины: рип и ориг. ДВД дополнительно залит в файлохранилище
Для удаления и добавления дорожек в mkv используйте бесплатную mkvmerge GUI 5.80

Дополнительно

Другие названия:
Beneath the Bermuda Triangle USA (alternative title)
Exafanisi sto trigono ton Vermoudon Greece (video title)
Időcsapdában Hungary
Tempo Debaixo de Fogo Portugal

Рецензия

Командир подводной лодки «Алабама» Алан Диккенс в 1990 году в Бермудском треугольнике переживает нечто необъяснимое. Весь экипаж его лодки погибает, а в живых остается только он. Но Диккенс не может ничего вспомнить. Его помещают в психиатрическую лечебницу, но он настаивает на том, что необходимо предпринять повторный поход в загадочный район. Проходит семь лет. Некая компания во главе с Лансом Маккарти добивается освобождения Диккенса, чтобы он вместе с ними отправился к Бермудским островам. Там с командой подводной лодки снова происходит тот же феномен, и они оказываются в 2077 году. Путешественники попадают в руки господствующей организации, которой противостоят повстанцы. Им удается бежать. Вскоре они узнают, что в 2015 году на Земле США развязали войну против Ирака, и началась ядерная война. В результате происшедших катаклизмов мир разделился на две враждующие половины. Алан Диккенс вместе с единомышленниками вступает в борьбу. В конце концов, им удается покинуть столь неуютное будущее…
Посредственный фантастический боевик с примитивным сюжетом, небольшим бюджетом и странным подбором актеров: голубоглазый красавчик Фэйхи в роли здоровяка-командира, а члены научной экспедиции больше похожи на каких-то бритых новых русских отморозков. Спецэффекты сделал Дэйл Ньюкирк («Маниту», 1978; «Черный мрамор», 1980; «Убийство в раю», 1990; «Сканнер-полицейский-2», 1995; «Кровавые деньги», 1996; «Ночное дежурство», 1998; «Час пик», 1998

MediaInfo

Общее
Уникальный идентификатор : 220107660321713028614821216615534680244 (0xA5973182ADF053D781176DC050EFD8B4)
Полное имя : E:\Vremja.pod.ognjom.1997.x264.DVDRip.sasha20072007.mkv
Формат : Matroska
Версия формата : Version 2
Размер файла : 1,60 Гбайт
Продолжительность : 1 ч. 28 м.
Общий поток : 2596 Кбит/сек
Название фильма : Время под огнем / Солдат времени / Time under fire / 1997 / rip by sasha20072007
Дата кодирования : UTC 2012-04-25 21:20:39
Программа кодирования : mkvmerge v5.5.0 ('Healer') built on Apr 16 2012 15:39:18
Библиотека кодирования : libebml v1.2.3 + libmatroska v1.3.0
Attachment : Yes / Yes
Видео
Идентификатор : 1
Формат : AVC
Формат/Информация : Advanced Video Codec
Профиль формата : High@L4.1
Параметр CABAC формата : Да
Параметр ReFrames формата : 10 кадров
Идентификатор кодека : V_MPEG4/ISO/AVC
Продолжительность : 1 ч. 28 м.
Битрейт : 1392 Кбит/сек
Ширина : 720 пикселей
Высота : 552 пикселя
Соотношение сторон : 4:3
Частота кадров : 25,000 кадров/сек
Цветовое пространство : YUV
Субдискретизация насыщенности : 4:2:0
Битовая глубина : 8 бит
Тип развёртки : Прогрессивная
Бит/(Пиксели*Кадры) : 0.140
Размер потока : 876 Мбайт (54%)
Библиотека кодирования : x264 core 120 r2164 da19765
Настройки программы : cabac=1 / ref=10 / deblock=1:-2:-2 / analyse=0x3:0x133 / me=umh / subme=11 / psy=1 / psy_rd=1.00:0.20 / mixed_ref=1 / me_range=24 / chroma_me=1 / trellis=2 / 8x8dct=1 / cqm=0 / deadzone=21,11 / fast_pskip=1 / chroma_qp_offset=-3 / threads=12 / sliced_threads=0 / nr=0 / decimate=1 / interlaced=0 / bluray_compat=0 / constrained_intra=0 / bframes=10 / b_pyramid=2 / b_adapt=2 / b_bias=0 / direct=3 / weightb=1 / open_gop=0 / weightp=2 / keyint=220 / keyint_min=22 / scenecut=40 / intra_refresh=0 / rc_lookahead=60 / rc=crf / mbtree=1 / crf=21.0 / qcomp=0.60 / qpmin=0 / qpmax=69 / qpstep=4 / vbv_maxrate=17500 / vbv_bufsize=14000 / crf_max=0.0 / nal_hrd=none / ip_ratio=1.25 / aq=1:0.90
Default : Да
Forced : Нет
Аудио #1
Идентификатор : 2
Формат : AC-3
Формат/Информация : Audio Coding 3
Расширение режима : CM (complete main)
Параметр Endianness формата : Big
Идентификатор кодека : A_AC3
Продолжительность : 1 ч. 28 м.
Вид битрейта : Постоянный
Битрейт : 192 Кбит/сек
Каналы : 2 канала
Расположение каналов : Front: L R
Частота : 48,0 КГц
Битовая глубина : 16 бит
Метод сжатия : С потерями
Размер потока : 121 Мбайт (7%)
Заголовок : Русский (ПД)
Язык : Russian
Default : Да
Forced : Да
Аудио #2
Идентификатор : 3
Формат : AC-3
Формат/Информация : Audio Coding 3
Расширение режима : CM (complete main)
Параметр Endianness формата : Big
Идентификатор кодека : A_AC3
Продолжительность : 1 ч. 28 м.
Вид битрейта : Постоянный
Битрейт : 192 Кбит/сек
Каналы : 2 канала
Расположение каналов : Front: L R
Частота : 48,0 КГц
Битовая глубина : 16 бит
Метод сжатия : С потерями
Размер потока : 121 Мбайт (7%)
Язык : Ukrainian
Default : Нет
Forced : Нет
Аудио #3
Идентификатор : 4
Формат : AC-3
Формат/Информация : Audio Coding 3
Расширение режима : CM (complete main)
Параметр Endianness формата : Big
Идентификатор кодека : A_AC3
Продолжительность : 1 ч. 28 м.
Вид битрейта : Постоянный
Битрейт : 384 Кбит/сек
Каналы : 6 каналов
Расположение каналов : Front: L C R, Side: L R, LFE
Частота : 48,0 КГц
Битовая глубина : 16 бит
Метод сжатия : С потерями
Размер потока : 242 Мбайт (15%)
Язык : English
Default : Нет
Forced : Нет
Аудио #4
Идентификатор : 5
Формат : AC-3
Формат/Информация : Audio Coding 3
Расширение режима : CM (complete main)
Параметр Endianness формата : Big
Идентификатор кодека : A_AC3
Продолжительность : 1 ч. 28 м.
Вид битрейта : Постоянный
Битрейт : 384 Кбит/сек
Каналы : 6 каналов
Расположение каналов : Front: L C R, Side: L R, LFE
Частота : 48,0 КГц
Битовая глубина : 16 бит
Метод сжатия : С потерями
Размер потока : 242 Мбайт (15%)
Язык : Polish
Default : Нет
Forced : Нет
Меню
00:00:00.000 : :Chapter 01
00:04:48.000 : :Chapter 02
00:09:34.560 : :Chapter 03
00:14:23.040 : :Chapter 04
00:19:17.280 : :Chapter 05
00:24:09.120 : :Chapter 06
00:28:56.160 : :Chapter 07
00:33:48.480 : :Chapter 08
00:38:40.800 : :Chapter 09
00:43:38.880 : :Chapter 10
00:48:26.880 : :Chapter 11
00:53:25.440 : :Chapter 12
00:58:07.680 : :Chapter 13
01:03:04.320 : :Chapter 14
01:07:54.720 : :Chapter 15
01:12:53.280 : :Chapter 16
01:17:43.200 : :Chapter 17
01:22:53.760 : :Chapter 18

Скриншоты



cd Рип дополнительно залит на mail.ru cd2
[Profile] [PM]

Guest

Gender: Unknown

Post 27-Nov-2015 21:41 (after 3 years 2 months)

[Quote]

Действительно,примитивный боевик.
Из фантастики здесь только сам факт путешествия во времени.
Не знал, что Джефф Фейхи (знаменитый Газонокосильщик) снимается в подобной дряни.
Последние 30 минут смотрел на постоянной перемотке.Ибо зае...
 
Display posts:    
Reply to topic

Current time is: 21-Sep 01:34

All times are UTC + 3



You cannot post new topics in this forum
You cannot reply to topics in this forum
You cannot edit your posts in this forum
You cannot delete your posts in this forum
You cannot vote in polls in this forum
You cannot attach files in this forum
You cannot download files in this forum