Замёрзшие мертвецы / Замороженные мертвецы / The frozen dead (Herbert J. Leder / Херберт Дж. Ледер) [1966 г., ужасы, фантастика, HDTVRip-720p] ЛО (den904), СТ (kosmoaelita, Severnyj)

Reply to topic
 
Author Message

admin ®

Gender: Male

Longevity: 6 years 11 months

Posts: 4725

Location: Україна

Post 02-Jul-2014 00:30

[Quote]

Замёрзшие мертвецы / Замороженные мертвецы / The frozen dead
Релиз - kosmoaelita. com
Год выпуска: 1966
Страна: Великобритания, Gold Star Productions Ltd, Seven Arts Productions
Жанр: ужасы, фантастика
Продолжительность: 01:35:15
Перевод: ЛО den904 по субтитры на слух с английского от Severnyj
Режиссер: Herbert J. Leder / Херберт Дж. Ледер
В ролях:
Dana Andrews ... Dr. Norberg
Anna Palk ... Jean Norberg
Philip Gilbert ... Dr. Ted Roberts
Kathleen Breck ... Elsa Tenney
Karel Stepanek ... General Lubeck
Basil Henson ... Dr. Tirpitz
Alan Tilvern ... Karl Essen
Anne Tirard ... Mrs. Schmidt
Edward Fox ... Norburg's Brother (Prisoner #3)
Oliver MacGreevy ... Joseph the Butler
Tom Chatto ... Inspector Witt
John Moore ... Bailey the Stationmaster
Charles Wade ... Alfie the Porter
Описание:Сумасшедший немецкий ученый пытается вернуть к жизни членов нацистской партии, замороженных в конце Второй мировой войны и таким образом возродить Третий рейх. Тела удается вернуть к жизни, но вот голову и мозг...
Релиз

Качество: HDTVRip-720p
Формат: MKV
Видео: x264, 3282 кбит/с, 1194x720, 23,976 к/с, crf=18
Аудио 1: Русский ЛО (den904) (AC3, 2 ch, 192 Кбит/с)
Аудио 2: Английский (AC3, 2 ch, 192 Кбит/с)
Аудио 3: Итальянский (AC3, 2 ch, 192 Кбит/с)
Субтитры : Русский (kosmoaelita,Severnyj), испанские, английские
Работа над релизом:
Релиз kosmoaelita
Видеоряд найден на rarbg2018.org
Галожение русского голоса - kosmoaelita
Перевод на слух с англ. по заказу kosmoaelita - Severnyj
Русская озвучка. по заказу kosmoaelita - den904



Пример русских субтитров и озвучки

Дополнительно

слоган «Frozen alive for 20 years! Now they return from their icy graves to seek vengeance!»
Also Known As (AKA)
(original title) The Frozen Dead
Greece (transliterated ISO-LATIN-1 title) I stratia ton zontanon nekron
Italy I redivivi
West Germany Die Eingefrorenen
================================================
Для Украины: рип и оригинальный ДВД дополнительно залиты в файлохранилище
Для удаления,добавления и извлечения дорожек в mkv используйте бесплатную портативную mkvmerge GUI 6.6.0
Для присоединения потом дорожек к avi воспользуйтесь VirtualDubMod

Отзывы

Лог кодирования

MediaInfo

Общее
Уникальный идентификатор : 211248132173462412418510359692445703114 (0x9EECE90C5C979781869E9BE3A0AF5BCA)
Полное имя : N:\BD-DISC\The.Frozen.Dead.1967.720p.HDTV.x264-REGRET[rarbg]\The Frozen Dead 1966.x264.HDTVRip.720p.Rus.kosmoaelita.mkv
Формат : Matroska
Версия формата : Version 4 / Version 2
Размер файла : 2,84 Гбайт
Продолжительность : 1 ч. 35 м.
Общий поток : 4262 Кбит/сек
Название фильма : The Frozen Dead / 1966 / kosmoaelita
Дата кодирования : UTC 2018-11-04 15:41:43
Программа кодирования : mkvmerge v6.6.0 ('The Edge Of The In Between') built on Dec 1 2013 17:55:00
Библиотека кодирования : libebml v1.3.0 + libmatroska v1.4.1
Attachments : POSTER.jpg
Видео
Идентификатор : 1
Формат : AVC
Формат/Информация : Advanced Video Codec
Профиль формата : High@L4.1
Параметр CABAC формата : Да
Параметр ReFrames формата : 5 кадров
Идентификатор кодека : V_MPEG4/ISO/AVC
Продолжительность : 1 ч. 35 м.
Битрейт : 3282 Кбит/сек
Ширина : 1194 пикселя
Высота : 720 пикселей
Соотношение сторон : 5:3
Режим частоты кадров : Постоянный
Частота кадров : 23,976 (24000/1001) кадра/сек
Цветовое пространство : YUV
Субдискретизация насыщенности : 4:2:0
Битовая глубина : 8 бит
Тип развёртки : Прогрессивная
Бит/(Пиксели*Кадры) : 0.159
Размер потока : 2,18 Гбайт (77%)
Заголовок : http://kosmoaelita.com/viewtopic.php?t=1286
Библиотека кодирования : x264 core 157 r2935 545de2f
Настройки программы : cabac=1 / ref=5 / deblock=1:0:0 / analyse=0x3:0x113 / me=hex / subme=8 / psy=1 / psy_rd=1.00:0.00 / mixed_ref=1 / me_range=16 / chroma_me=1 / trellis=2 / 8x8dct=1 / cqm=0 / deadzone=21,11 / fast_pskip=1 / chroma_qp_offset=-2 / threads=22 / lookahead_threads=3 / sliced_threads=0 / nr=0 / decimate=1 / interlaced=0 / bluray_compat=0 / constrained_intra=0 / bframes=3 / b_pyramid=2 / b_adapt=1 / b_bias=0 / direct=3 / weightb=1 / open_gop=0 / weightp=2 / keyint=250 / keyint_min=23 / scenecut=40 / intra_refresh=0 / rc_lookahead=50 / rc=crf / mbtree=1 / crf=18.0 / qcomp=0.60 / qpmin=0 / qpmax=69 / qpstep=4 / ip_ratio=1.40 / aq=1:1.00
Default : Да
Forced : Нет
Аудио #1
Идентификатор : 2
Формат : AC-3
Формат/Информация : Audio Coding 3
Расширение режима : CM (complete main)
Параметр Endianness формата : Big
Идентификатор кодека : A_AC3
Продолжительность : 1 ч. 35 м.
Вид битрейта : Постоянный
Битрейт : 256 Кбит/сек
Каналы : 2 канала
Расположение каналов : Front: L R
Частота : 48,0 КГц
Частота кадров : 31,250 кадров/сек (1536 spf)
Метод сжатия : С потерями
Размер потока : 174 Мбайт (6%)
Заголовок : Русский ЛО (den904 для kosmoaelita.com)
Язык : Russian
Default : Да
Forced : Нет
Аудио #2
Идентификатор : 3
Формат : AC-3
Формат/Информация : Audio Coding 3
Расширение режима : CM (complete main)
Параметр Endianness формата : Big
Идентификатор кодека : A_AC3
Продолжительность : 1 ч. 35 м.
Вид битрейта : Постоянный
Битрейт : 448 Кбит/сек
Каналы : 6 каналов
Расположение каналов : Front: L C R, Side: L R, LFE
Частота : 48,0 КГц
Частота кадров : 31,250 кадров/сек (1536 spf)
Метод сжатия : С потерями
Размер потока : 305 Мбайт (11%)
Язык : English
Default : Нет
Forced : Нет
Аудио #3
Идентификатор : 4
Формат : AC-3
Формат/Информация : Audio Coding 3
Расширение режима : CM (complete main)
Параметр Endianness формата : Big
Идентификатор кодека : A_AC3
Продолжительность : 1 ч. 35 м.
Вид битрейта : Постоянный
Битрейт : 192 Кбит/сек
Каналы : 2 канала
Расположение каналов : Front: L R
Частота : 48,0 КГц
Частота кадров : 31,250 кадров/сек (1536 spf)
Метод сжатия : С потерями
Размер потока : 131 Мбайт (5%)
Язык : Italian
Default : Нет
Forced : Нет
Текст #1
Идентификатор : 5
Формат : UTF-8
Идентификатор кодека : S_TEXT/UTF8
Идентификатор кодека/Информация : UTF-8 Plain Text
Заголовок : Русский (kosmoaelita,Severnyj) srt
Язык : Russian
Default : Да
Forced : Нет
Текст #2
Идентификатор : 6
Формат : VobSub
Режим смешивания : zlib
Идентификатор кодека : S_VOBSUB
Идентификатор кодека/Информация : Picture based subtitle format used on DVDs
Заголовок : Русский (kosmoaelita,Severnyj) VobSub
Язык : Russian
Default : Нет
Forced : Нет
Текст #3
Идентификатор : 7
Формат : UTF-8
Идентификатор кодека : S_TEXT/UTF8
Идентификатор кодека/Информация : UTF-8 Plain Text
Язык : English
Default : Нет
Forced : Нет
Текст #4
Идентификатор : 8
Формат : UTF-8
Идентификатор кодека : S_TEXT/UTF8
Идентификатор кодека/Информация : UTF-8 Plain Text
Язык : Spanish
Default : Нет
Forced : Нет
Текст #5
Идентификатор : 9
Формат : VobSub
Режим смешивания : zlib
Идентификатор кодека : S_VOBSUB
Идентификатор кодека/Информация : Picture based subtitle format used on DVDs
Язык : Italian
Default : Нет
Forced : Нет

Пример субтитров

11
00:03:04,792 --> 00:03:06,596
А, Карл, вот вы где!
12
00:03:06,996 --> 00:03:08,861
Идите сюда.
13
00:03:09,927 --> 00:03:12,483
Вы уверены, что генерал Лубек сказал,
что приедет к девяти?
14
00:03:12,544 --> 00:03:13,671
Да, доктор.
15
00:03:13,871 --> 00:03:15,866
От Лондонского аэропорта
сюда добираться не более 40 минут.
--------------------------
1079
01:30:31,400 --> 01:30:33,906
Что?
1080
01:30:34,880 --> 01:30:39,960
Похороните меня.
1081
01:30:40,640 --> 01:30:44,080
Похороните меня.
1082
01:30:45,886 --> 01:30:50,218
Похороните меня!
1083
01:30:53,095 --> 01:30:55,013
КОНЕЦ
1084
01:31:00,609 --> 01:31:05,888
Перевод на слух с англ - Severnyj
Ред. sasha20072007
июль, 2014 года
1085
01:31:08,109 --> 01:31:13,888
Релиз
www.kosmoaelita.com

Скриншоты


















Скринлист

Файл дополнительно залит на ОБЛАКО


Last edited by admin on 2014-07-09 03:08; edited 6 times in total
[Profile] [PM]

admin ®

Gender: Male

Longevity: 6 years 11 months

Posts: 4725

Location: Україна

Post 03-Jul-2014 21:02 (after 1 day 20 hours)

[Quote]

Фильм из серии "Голова профессора Доуэля"
[Profile] [PM]

Guest

Gender: Unknown

Post 04-Jul-2014 14:25 (after 17 hours)

[Quote]

Из серии "Они сохранили мозг Гитлера")
 

Guest

Gender: Unknown

Post 05-Jul-2014 01:06 (after 10 hours)

[Quote]

5726Из серии "Они сохранили мозг Гитлера")
Гораздо интереснее!
 

Guest

Gender: Unknown

Post 06-Jul-2014 15:05 (after 1 day 13 hours)

[Quote]

Передлагаю перевод аннотации:
Сумасшедший нацистский ученых сохраняет живыми головы фашистских военных преступников в надежде найти подходящие тела, пришить головы к ним и таким образом возродить Третий рейх.
 

admin ®

Gender: Male

Longevity: 6 years 11 months

Posts: 4725

Location: Україна

Post 06-Jul-2014 16:15 (after 1 hour 10 minutes)

[Quote]

5747Передлагаю перевод аннотации:
Сумасшедший нацистский ученых сохраняет живыми головы фашистских военных преступников в надежде найти подходящие тела, пришить головы к ним и таким образом возродить Третий рейх.
К сожалению аннотация на imgb совершенно не соответствует сюжету
[Profile] [PM]

$Shorox

Gender: Male

Longevity: 6 years 8 months

Posts: 1888

Post 07-Jul-2014 20:14 (after 1 day 3 hours)

[Quote]

Есть ещё один фильм про замороженных нацистов. Название не помню. Помню что на острове дело было.
[Profile] [PM]

admin ®

Gender: Male

Longevity: 6 years 11 months

Posts: 4725

Location: Україна

Post 09-Jul-2014 00:20 (after 1 day 4 hours)

[Quote]

Добавлена русская озвучка
[Profile] [PM]

Susanin

Gender: Male

Longevity: 5 years 4 months

Posts: 822

Post 09-Jul-2014 07:03 (after 6 hours)

[Quote]

Есть ещё "Нацисты в центре Земли", но там треш вообще полный.
[Profile] [PM]

Susanin

Gender: Male

Longevity: 5 years 4 months

Posts: 822

Post 12-Jun-2018 17:06 (after 3 years 11 months)

[Quote]

Раздайте?
[Profile] [PM]

pompilius

Gender: Male

Longevity: 1 year 9 months

Posts: 150

Post 12-Jun-2018 20:18 (after 3 hours)

[Quote]

Раздаю
[Profile] [PM]

Susanin

Gender: Male

Longevity: 5 years 4 months

Posts: 822

Post 12-Jun-2018 22:04 (after 1 hour 46 minutes)

[Quote]

скачал, спасибо!
[Profile] [PM]

Susanin

Gender: Male

Longevity: 5 years 4 months

Posts: 822

Post 04-Nov-2018 18:06 (after 4 months 21 day)

[Quote]

HDTVrip
http://www.myduckisdead.org/2018/11/the-frozen-dead...ert-j-leder.html
[Profile] [PM]

kosmoaelita2

Gender: Male

Longevity: 6 years 10 months

Posts: 743

Post 04-Nov-2018 18:20 (after 14 minutes)

[Quote]

Доделываю
[Profile] [PM]

kosmoaelita2

Gender: Male

Longevity: 6 years 10 months

Posts: 743

Post 04-Nov-2018 18:50 (after 29 minutes)

[Quote]

Замена на HDTVRip-720p
[Profile] [PM]
Display posts:    
Reply to topic

Current time is: 20-Aug 08:32

All times are UTC + 3



You cannot post new topics in this forum
You cannot reply to topics in this forum
You cannot edit your posts in this forum
You cannot delete your posts in this forum
You cannot vote in polls in this forum
You cannot attach files in this forum
You cannot download files in this forum