Духи Юпитера / Планета, которая сошла с ума / The Spirits of Jupiter / Planet Gone Mad (Russell Kern) [1985 г., Фантастика, мистика, VHSRip] ЛО (den904), СТ (kosmoaelita, Severnyj)

Reply to topic
 
Author Message

admin ®

Gender: Male

Longevity: 6 years 7 months

Posts: 4727

Location: Україна

Post 01-Jul-2014 18:24

[Quote]

Духи Юпитера / Планета, которая сошла с ума / The Spirits of Jupiter / Planet Gone Mad
Релиз - kosmoaelita. com
Год выпуска: 1985
Страна: США,
Жанр: Фантастика, мистика
Продолжительность: 01:42:07
Перевод: ЛО den904 по cубтитрам на слух с английского Severnyj
Режиссер: Russell Kern
В ролях:
James Aerni
Chopper Bernet
Rex Cutter
Carol Engel
Richard Fain
Thomas Fischer
Walter Jaschek
Richard Luna
Sandra Shields
Cliff Willis
Описание: Планета Юпитер подошла близко к Земле, чем вызвала гравитационные возмущения, действующие на человеческий мозг и людей с определенным типом крови, живущих на возвышенностях. В результате жители маленького городка в Скалистых горах превращаются в безумцев-людоедов, жаждущих человеческой крови.
Релиз

Качество: VHSRip
Формат: MKV
Видео: x264, 1542 кбит/с, 720x544, 23.976 к/с
Аудио 1: Русский ЛО (den904) (AC3, 2 ch, 192 Кбит/с)
Аудио 2: Английский (AC3, 2 ch, 192 Кбит/с)
Аудио 3: Немецкий (AC3, 2 ch, 192 Кбит/с)
Субтитры : Русский (kosmoaelita,Severnyj)
Работа над релизом:
Релиз kosmoaelita
Видеоряд "слеплен" из английской и немецкой версий
Перевод на слух с англ. по заказу kosmoaelita - Severnyj
Русская озвучка по заказу kosmoaelita - den904



Пример русских озвучки и субтитров

Дополнительно

================================================
Для Украины: рип и оригинальный ДВД дополнительно залиты в файлохранилище
Для удаления,добавления и извлечения дорожек в mkv используйте бесплатную портативную mkvmerge GUI 6.6.0
Для присоединения потом дорожек к avi воспользуйтесь VirtualDubMod

Отзывы

MediaInfo

Общее
Уникальный идентификатор : 242390477579735756168446990246732670289 (0xB65AB538F7D2BE6A807DDD555BB0A551)
Полное имя : N:\The Spirits of Jupiter (Planet Gone Mad) 1985.XviD.VHSRip.Rus.kosmoaelita.mkv
Формат : Matroska
Версия формата : Version 4 / Version 2
Размер файла : 1,65 Гбайт
Продолжительность : 1 ч. 42 м.
Общий поток : 2311 Кбит/сек
Название фильма : The Spirits of Jupiter / Planet Gone Mad Ger / Духи Юпитера / 1985 / rip by sasha20072007 (2013-06-19)
Дата кодирования : UTC 2014-07-21 05:39:00
Программа кодирования : mkvmerge v6.6.0 ('The Edge Of The In Between') built on Dec 7 2013 13:21:48
Библиотека кодирования : libebml v1.3.0 + libmatroska v1.4.1
Attachment : Yes
Видео
Идентификатор : 1
Формат : MPEG-4 Visual
Профиль формата : Advanced Simple@L5
Параметр BVOP формата : Да
Параметр QPel формата : Нет
Параметр GMC формата : Без точки перехода
Параметр матрицы формата : Default (H.263)
Идентификатор кодека : V_MS/VFW/FOURCC / XVID
Идентификатор кодека/Подсказка : XviD
Продолжительность : 1 ч. 42 м.
Битрейт : 1689 Кбит/сек
Ширина : 720 пикселей
Высота : 544 пикселя
Соотношение сторон : 4:3
Режим частоты кадров : Постоянный
Частота кадров : 25,000 кадров/сек
Цветовое пространство : YUV
Субдискретизация насыщенности : 4:2:0
Битовая глубина : 8 бит
Тип развёртки : Прогрессивная
Метод сжатия : С потерями
Бит/(Пиксели*Кадры) : 0.173
Размер потока : 1,20 Гбайт (73%)
Заголовок : German VHS (Релиз www.kosmoaelita.com)
Библиотека кодирования : XviD 1.2.1 (UTC 2008-12-04)
Язык : German
Default : Да
Forced : Нет
Аудио #1
Идентификатор : 2
Формат : AC-3
Формат/Информация : Audio Coding 3
Расширение режима : CM (complete main)
Параметр Endianness формата : Big
Идентификатор кодека : A_AC3
Продолжительность : 1 ч. 42 м.
Вид битрейта : Постоянный
Битрейт : 192 Кбит/сек
Каналы : 2 канала
Расположение каналов : Front: L R
Частота : 48,0 КГц
Битовая глубина : 16 бит
Метод сжатия : С потерями
Размер потока : 140 Мбайт (8%)
Заголовок : Русский ЛО (den904 для kosmoaelita.com)
Язык : Russian
Default : Да
Forced : Нет
Аудио #2
Идентификатор : 3
Формат : AC-3
Формат/Информация : Audio Coding 3
Расширение режима : CM (complete main)
Параметр Endianness формата : Big
Идентификатор кодека : A_AC3
Продолжительность : 1 ч. 42 м.
Вид битрейта : Постоянный
Битрейт : 192 Кбит/сек
Каналы : 2 канала
Расположение каналов : Front: L R
Частота : 48,0 КГц
Битовая глубина : 16 бит
Метод сжатия : С потерями
Размер потока : 140 Мбайт (8%)
Язык : English
Default : Нет
Forced : Нет
Аудио #3
Идентификатор : 4
Формат : AC-3
Формат/Информация : Audio Coding 3
Расширение режима : CM (complete main)
Параметр Endianness формата : Big
Идентификатор кодека : A_AC3
Продолжительность : 1 ч. 42 м.
Вид битрейта : Постоянный
Битрейт : 192 Кбит/сек
Каналы : 2 канала
Расположение каналов : Front: L R
Частота : 48,0 КГц
Битовая глубина : 16 бит
Метод сжатия : С потерями
Размер потока : 140 Мбайт (8%)
Язык : German
Default : Нет
Forced : Нет
Текст #1
Идентификатор : 5
Формат : VobSub
Режим смешивания : zlib
Идентификатор кодека : S_VOBSUB
Идентификатор кодека/Информация : The same subtitle format used on DVDs
Заголовок : Русский (kosmoaelita,Severnyj) VobSub
Язык : Russian
Default : Да
Forced : Нет
Текст #2
Идентификатор : 6
Формат : UTF-8
Идентификатор кодека : S_TEXT/UTF8
Идентификатор кодека/Информация : UTF-8 Plain Text
Заголовок : Русский (kosmoaelita,Severnyj) srt
Язык : Russian
Default : Нет
Forced : Нет

Пример субтитров

1
00:00:07,317 --> 00:00:12,364
Релиз
www.kosmoaelita.com
2
00:00:17,317 --> 00:00:22,364
Юпитер и Сатурн выстраиваются
за Марсом.
3
00:00:22,411 --> 00:00:26,082
Вечный Бог, что же изменилось?..
4
00:00:26,664 --> 00:00:31,000
Из-за гор взойдёт великая сила...
5
00:00:31,314 --> 00:00:39,343
Могучий, долго скрывавшийся в тенях,
остудит свой меч в крови.
6
00:00:54,705 --> 00:00:58,369
Что, шеф, подташнивает?
7
00:01:00,048 --> 00:01:03,952
Да, некоторые чувствуют себя
увереннее на земле.
----------------------
765
01:40:26,660 --> 01:40:28,530
Долгое время будет царить мир.
766
01:40:28,531 --> 01:40:33,141
Население вырастет. Люди будут
путешествовать по земле, морям... воздуху.
767
01:40:33,486 --> 01:40:37,408
А потом начнутся войны,
одна за другой... одна за другой...
одна за другой...

Скриншоты


















Last edited by admin on 2014-12-27 14:20; edited 8 times in total
[Profile] [PM]

admin ®

Gender: Male

Longevity: 6 years 7 months

Posts: 4727

Location: Україна

Post 02-Jul-2014 00:01 (after 5 hours)

[Quote]

Будет озвучка у дена
[Profile] [PM]

k-center

Gender: Male

Longevity: 5 years 10 months

Posts: 180

Location: Украина

Post 03-Jul-2014 19:15 (after 1 day 19 hours)

[Quote]

Предлагаю перевод аннотации:
Планета Юпитер подошла близко к Земле, чем вызвала гравитационные возмущения, действующие на человеческий мозг и людей с определенным типом крови, живущих на возвышенностях. В результате жители маленького городка в Скалистых горах превращаются в безумцев-людоедов, жаждущих человеческой крови.
[Profile] [PM]

admin ®

Gender: Male

Longevity: 6 years 7 months

Posts: 4727

Location: Україна

Post 21-Jul-2014 00:42 (after 17 days)

[Quote]

Добавлена русская озвучка от den904
[Profile] [PM]

Guest

Gender: Unknown

Post 23-Jul-2014 18:42 (after 2 days 18 hours)

[Quote]

Комедия/ужасы, что ли... Не досмотрел.)
 

admin ®

Gender: Male

Longevity: 6 years 7 months

Posts: 4727

Location: Україна

Post 23-Jul-2014 18:44 (after 1 minute)

[Quote]

Триллер-боевик ab
[Profile] [PM]

admin ®

Gender: Male

Longevity: 6 years 7 months

Posts: 4727

Location: Україна

Post 27-Dec-2014 14:21 (after 5 months 3 days)

[Quote]

Перезалито
[Profile] [PM]

Guest

Gender: Unknown

Post 15-Oct-2016 06:47 (after 1 year 9 months)

[Quote]

Why can't I download this movie?? > ac
 

croMAG

Gender: Male

Longevity: 3 years 7 months

Posts: 2055

Location: Прибалтика

Post 15-Oct-2016 10:36 (after 3 hours)

[Quote]

cheeselover,
Because it is a paid torrent.
[Profile] [PM]

Guest

Gender: Unknown

Post 23-Nov-2016 01:57 (after 1 month 7 days)

[Quote]

How do I pay for it?
 

croMAG

Gender: Male

Longevity: 3 years 7 months

Posts: 2055

Location: Прибалтика

Post 23-Nov-2016 10:48 (after 8 hours)

[Quote]

On paypal details to be communicated to your email.
[Profile] [PM]

Guest

Gender: Unknown

Post 01-Jun-2017 20:58 (after 6 months 8 days)

[Quote]

Hello, I would like to download this film desperately.
I have family connections to it, and my father and I have never seen it.
Is there anyway I could negotiate a deal with you? My email is nightmarenever78@gmail.com
 

Guest

Gender: Unknown

Post 02-Jun-2017 19:19 (after 22 hours)

[Quote]

Hello again: I just wanted to let you know that I have paid for the invite code/torrent
 
Quick Reply

Name:

            
Heads necessary to send messages to enable JavaScript
Display posts:    
Reply to topic

Current time is: 22-Apr 10:03

All times are UTC + 3.5



You cannot post new topics in this forum
You can reply to topics in this forum
You cannot edit your posts in this forum
You cannot delete your posts in this forum
You cannot vote in polls in this forum
You cannot attach files in this forum
You cannot download files in this forum