Побег из Сейфхевена / Escape from Safehaven (Brian Thomas Jones, James McCalmont / Брайан Томас Джонс, Джеймс МакКальмонт) [1989 г., США, фантастика, постапокалипсис, VHSRip] АО (В.Воронцов)

Ответить на тему
 
Автор Сообщение

punk2 ®

Пол: Мужской

Стаж: 5 лет 1 месяц

Сообщений: 35

Создавать темы 01-Июл-2014 00:49

[Цитировать]

Побег из Сейфхевена / Escape from Safehaven
Год выпуска: 1989
Страна: США, Avalon Productions
Жанр: фантастика, постапокалипсис
Продолжительность: 01:26:53
Перевод: Русский АО (В.Воронцов)
Режиссер: Brian Thomas Jones, James McCalmont / Брайан Томас Джонс, Джеймс МакКальмонт
В ролях: Уильям Бекуив, Джессика Даблин, Пол Гейджер, Рик Джианази, Томас Грубе, Рой МакАртур, Tere Malson, Молли О’Мара, Маркус Пауэлл, Кариим Рэтклифф
Описание: В постапокалиптическом мире, семья Кольтов ищет убежище в легендарной общине-убежище Сейфхевен, которая защищена от внешнего мира стеной и вооруженной охраной. Однако, как только они попадают туда, то обнаруживают что охранники общины это тюремщики, а всё поселение — концентрационный лагерь где людей жестоко угнетают. Но так же есть и своё движение сопротивления у которого вновь прибывшие пытаются заручиться поддержкой и просят помощи.
Качество: VHSRip
Формат: MKV
Видео: x264, 2004 кбит/с, 720x536, 23.976 к/с, crf=18
Аудио 1: Русский АО (В.Воронцов)(AC3, 2 ch, 192 Кбит/с)
Аудио 2: Английский (AC3, 2 ch, 192 Кбит/с)
Работа над релизом:
Релиз westerns.ru


Дополнительно

слоган «In order to survive they must escape Safehaven 185»
рейтинг MPAA До 17 лет обязательно присутствик взрослого
Also Known As (AKA)
Canada (video title) (French title) Les rescapés du camp 186
Spain Infierno en Safehaven
Portugal Destruição Total
USA (working title) Bloodscape
West Germany Inferno in Safehaven

Отзывы

MediaInfo

Общее
Уникальный идентификатор : 219648534463693365692833607415088967420 (0xA53EC4DBA3D4B035937CAA53D3F26EFC)
Полное имя : F:\Escape from Safehaven 1989.x264.VHSRip.Rus.kosmoaelita.mkv
Формат : Matroska
Версия формата : Version 4 / Version 2
Размер файла : 1,45 Гбайт
Продолжительность : 1 ч. 26 м.
Общий поток : 2390 Кбит/сек
Название фильма : Побег из Сейфхевена / Escape from Safehaven / 1989 / rip from NTSC DVDVHS5 by sasha20072007 (kosmoaelita) (2017-07-21), crf=17.50
Дата кодирования : UTC 2017-09-16 17:42:04
Программа кодирования : mkvmerge v6.6.0 ('The Edge Of The In Between') built on Dec 1 2013 17:55:00
Библиотека кодирования : libebml v1.3.0 + libmatroska v1.4.1
Attachments : POSTER.jpg / VTS_01_1_001.mkv.encoding.log
Видео
Идентификатор : 1
Формат : AVC
Формат/Информация : Advanced Video Codec
Профиль формата : High@L4.1
Параметр CABAC формата : Да
Параметр ReFrames формата : 8 кадров
Идентификатор кодека : V_MPEG4/ISO/AVC
Продолжительность : 1 ч. 26 м.
Битрейт : 2004 Кбит/сек
Ширина : 720 пикселей
Высота : 536 пикселей
Соотношение сторон : 4:3
Режим частоты кадров : Постоянный
Частота кадров : 23,976 (24000/1001) кадра/сек
Цветовое пространство : YUV
Субдискретизация насыщенности : 4:2:0
Битовая глубина : 8 бит
Тип развёртки : Прогрессивная
Бит/(Пиксели*Кадры) : 0.217
Размер потока : 1,19 Гбайт (82%)
Заголовок : kosmoaelita
Библиотека кодирования : x264 core 130 r2273 b3065e6
Настройки программы : cabac=1 / ref=8 / deblock=1:-1:-1 / analyse=0x3:0x133 / me=umh / subme=11 / psy=1 / psy_rd=0.99:0.14 / mixed_ref=1 / me_range=24 / chroma_me=1 / trellis=2 / 8x8dct=1 / cqm=0 / deadzone=21,11 / fast_pskip=1 / chroma_qp_offset=-3 / threads=6 / lookahead_threads=1 / sliced_threads=0 / nr=0 / decimate=1 / interlaced=0 / bluray_compat=0 / constrained_intra=0 / bframes=8 / b_pyramid=2 / b_adapt=2 / b_bias=0 / direct=3 / weightb=1 / open_gop=0 / weightp=2 / keyint=210 / keyint_min=21 / scenecut=40 / intra_refresh=0 / rc_lookahead=60 / rc=2pass / mbtree=1 / bitrate=2004 / ratetol=1.0 / qcomp=0.65 / qpmin=0 / qpmax=69 / qpstep=4 / cplxblur=20.0 / qblur=0.5 / ip_ratio=1.25 / aq=1:0.90
Default : Да
Forced : Нет
Цветовой диапазон : Limited
Основные цвета : BT.601 PAL
Характеристики трансфера : BT.470 System B, BT.470 System G
Коэффициенты матрицы : BT.601
Statistics Tags Issue : mkvmerge v7.8.0 ('River Man') 32bit built on Mar 27 2015 16:18:02 2017-07-21 15:03:45 / mkvmerge v6.6.0 ('The Edge Of The In Between') built on Dec 1 2013 17:55:00 2017-09-16 17:42:04
FromStats_BitRate : 2004349
FromStats_Duration : 01:26:52.624000000
FromStats_FrameCount : 124978
FromStats_StreamSize : 1305989871
Аудио #1
Идентификатор : 2
Формат : AC-3
Формат/Информация : Audio Coding 3
Расширение режима : CM (complete main)
Параметр Endianness формата : Big
Идентификатор кодека : A_AC3
Продолжительность : 1 ч. 26 м.
Вид битрейта : Постоянный
Битрейт : 192 Кбит/сек
Каналы : 2 канала
Расположение каналов : Front: L R
Частота : 48,0 КГц
Частота кадров : 31,250 кадров/сек (1536 spf)
Метод сжатия : С потерями
Размер потока : 119 Мбайт (8%)
Заголовок : Русский АО (В.Воронцов)
Язык : Russian
Default : Да
Forced : Нет
Аудио #2
Идентификатор : 3
Формат : AC-3
Формат/Информация : Audio Coding 3
Расширение режима : CM (complete main)
Параметр Endianness формата : Big
Идентификатор кодека : A_AC3
Продолжительность : 1 ч. 26 м.
Вид битрейта : Постоянный
Битрейт : 192 Кбит/сек
Каналы : 2 канала
Расположение каналов : Front: L R
Частота : 48,0 КГц
Частота кадров : 31,250 кадров/сек (1536 spf)
Метод сжатия : С потерями
Размер потока : 119 Мбайт (8%)
Язык : English
Default : Нет
Forced : Нет
Меню
00:11:40.634 : en:00:11:40.634
00:24:33.906 : en:00:24:33.906
00:37:30.182 : en:00:37:30.182
00:51:28.518 : en:00:51:28.518
01:03:26.736 : en:01:03:26.736
01:16:34.022 : en:01:16:34.022
01:22:25.874 : en:01:22:25.874
01:26:52.641 : en:01:26:52.641
01:26:53.142 : en:01:26:53.142

Скринлист

cd Рип дополнительно залит на ОБЛАКО cd2


Последний раз редактировалось: punk2 (2014-07-01 00:53), всего редактировалось 1 раз
[Профиль] [ЛС]
Показать сообщения:    
Ответить на тему

Текущее время: 24-Ноя 16:47

Часовой пояс: UTC + 3:30



Вы не можете начинать темы
Вы не можете отвечать на сообщения
Вы не можете редактировать свои сообщения
Вы не можете удалять свои сообщения
Вы не можете голосовать в опросах
Вы не можете прикреплять файлы к сообщениям
Вы не можете скачивать файлы