Миссия в Москву / Mission to Moscow (Майкл Кертиц / Michael Curtiz) [1943 г., Драма, военный, история, DVD5], ЛО

Ответить на тему
Статистика раздачи
Размер:  4,35 GB   |    Зарегистрирован:  3 года   |    Скачан:  2 раза

Полного источника не было: 2 года 5 месяцев

 
   
 
 
 
Автор Сообщение

$Shorox ®

Пол: Мужской

Стаж: 4 года 7 месяцев

Сообщений: 1897

Создавать темы 29-Июн-2014 09:16

[Цитировать]

Миссия в Москву / Mission to Moscow
Год выпуска: 1943
Страна: США
Жанр: Драма, военный, история
Продолжительность: 02:02:57
Перевод: Любительский одноголосый
Режиссер: Майкл Кертиц / Michael Curtiz
В ролях: Уолтер Хьюстон / Walter Huston, Энн Хардинг / Ann Harding, Оскар Хомолка / Oskar Homolka, Джордж Тобиаш / George Tobias, Джин Локхарт / Gene Lockhart, Элинор Паркер / Eleanor Parker, Ричард Трэвис / Richard Travis, Хельмут Дантин / Helmut Dantine, Виктор Франсан / Victor Francen, Генри Даниэль / Henry Daniell, Барбара Эверест / Barbara Everest, Роман Бонен / Roman Bohnen, Мария Палмер / Maria Palmer, Морони Олсен / Moroni Olsen, Майнор Уотсон / Minor Watson, Владимир Соколов / Vladimir Sokoloff, Морис Шварц / Maurice Schwartz
Описание: 1936 году Президент Франклин Д. Рузвельт назначает Джозефа Э. Дэвиса, процветающего адвоката, послом США в Советском Союзе. Миссия Дэвиса - определить, будет ли эффективным союз с советскими людьми в случае войны с фашистской Германией. Посол Дэвис поражён тем, что он увидел во время своего пребывания в России. У Советов серьезная армия и они горят желанием вступить в союз с дружественными нациями, наподобие Америки и других европейских стран для победы над Гитлером и построения мирного будущего для всего человечества. Да, именно такой Сталин - это человек, с которым нам нужно вести дела... «Миссия в Москву» - это хроника впечатлений о Советском Союзе американского посла Дэвиса, его встреч со Сталиным, и его общая точка зрения на отношения Советского Союза и Соединенных Штатов. Фильм снят в полудокументальном стиле. Фильм описывает взгляд Дэвиса на различные события в истории Советского Союза. Картина начинается с вступления настоящего посла Дэвисa: «Лидеры ни одной страны не были настолько ошибочно представлены и непоняты, как советское правительство в те критические годы между двумя мировыми войнами».
Релиз

DVD предоставил Holmes
Качество: DVD5
Формат: DVD Video
Видео кодек: MPEG2
Аудио кодек: AC3
Видео: MPEG Video, NTSC, VBR, 720x480, 4:3, 23.976 fps, ~ 4 823 Kbps
Аудио: Русский, AC-3, 192 Kbps, 2 channels, 48.0 KHz
Аудио: Английский, AC-3, 192 Kbps, 2 channels, 48.0 KHz


kino-teatr.ru
Сэмпл

Дополнительно

Отзывы

Скриншоты меню

Скриншоты




Скриншоты использованных программ

PgcDemux 1.2.0.4 - Разборка DVD
BeSweet +BeLight - Кодирование звуковых файлов
Adobe Audition CC - Синхронизация звуковых файлов
Minnetonka SurCode for Dolby Digital - Кодирование звуковых файлов
Muxman - сборка DVD
DVDRemake Pro - реавторинг DVD
CyberLink PowerDVD - Проверка правильности расположения дорожек и субтитров, проверка работы на софтплеере
MPEG2Cut - сэмпл
PgcDemux

BeSweet +BeLight 1

Adobe Audition CC

Minnetonka

Muxman

DVDRemake Pro

DVD.info

DVD.info исходного диска

Title: Mission to Moscow
Size: 4.18 Gb ( 4 383 518,00 KBytes ) - DVD-5
Enabled regions: 1, 2, 3, 4, 5, 6, 7, 8
VTS_01 :
Play Length: 00:02:13
Video: NTSC 4:3 (720x480) VBR
Audio:
English (Dolby AC3, 2 ch)
VTS_02 :
Play Length: 02:02:50
Video: NTSC 4:3 (720x480) VBR
Audio:
English (Dolby AC3, 2 ch)
VTS_03 :
Play Length: 00:00:11+00:01:00
Video: NTSC 4:3 (720x480) VBR
Audio:
English (Dolby AC3, 2 ch)
* Menus Information *
VIDEO_TS Menu
Video:
NTSC 4:3 (720x480) VBR
English Language Unit :
Title Menu
VTS_01 Menu
Video:
NTSC 16:9 (720x480) VBR
Auto Pan&Scan
English Language Unit :
Root Menu
VTS_02 Menu
Video:
NTSC 16:9 (720x480) VBR
Auto Pan&Scan
English Language Unit :
Root Menu
VTS_03 Menu
Video:
NTSC 16:9 (720x480) VBR
Auto Pan&Scan
English Language Unit :
Root Menu
DVD.info раздаваемого диска

Title: DVDRemake Mission to Moscow
Size: 4.35 Gb ( 4 559 166,00 KBytes ) - DVD-5
Enabled regions: 1, 2, 3, 4, 5, 6, 7, 8
VTS_01 :
Play Length: 00:02:13
Video: NTSC 4:3 (720x480) VBR
Audio:
English (Dolby AC3, 2 ch)
VTS_02 :
Play Length: 02:02:50
Video: NTSC 4:3 (720x480) VBR
Audio:
Russian (Dolby AC3, 2 ch)
English (Dolby AC3, 2 ch)
VTS_03 :
Play Length: 00:00:11+00:01:00
Video: NTSC 4:3 (720x480) VBR
Audio:
English (Dolby AC3, 2 ch)
* Menus Information *
VIDEO_TS Menu
Video:
NTSC 4:3 (720x480) VBR
English Language Unit :
Title Menu
VTS_01 Menu
Video:
NTSC 16:9 (720x480) VBR
Auto Pan&Scan
English Language Unit :
Root Menu
VTS_02 Menu
Video:
NTSC 16:9 (720x480) VBR
Auto Pan&Scan
English Language Unit :
Root Menu
VTS_03 Menu
Video:
NTSC 16:9 (720x480) VBR
Auto Pan&Scan
English Language Unit :
Root Menu

МедиаИнфо

General
Complete name : F:\Proekt\DVDRemake Mission to Moscow\VIDEO_TS\VTS_02_1.VOB
Format : MPEG-PS
File size : 1 024 MiB
Duration : 29mn 40s
Overall bit rate mode : Variable
Overall bit rate : 4 823 Kbps
Video
ID : 224 (0xE0)
Format : MPEG Video
Format version : Version 2
Format profile : Main@Main
Format settings, BVOP : Yes
Format settings, Matrix : Custom
Format settings, GOP : M=3, N=12
Duration : 29mn 40s
Bit rate mode : Variable
Bit rate : 4 343 Kbps
Maximum bit rate : 8 700 Kbps
Width : 720 pixels
Height : 480 pixels
Display aspect ratio : 4:3
Frame rate : 23.976 fps
Standard : NTSC
Color space : YUV
Chroma subsampling : 4:2:0
Bit depth : 8 bits
Scan type : Progressive
Scan order : 2:3 Pulldown
Compression mode : Lossy
Bits/(Pixel*Frame) : 0.524
Time code of first frame : 01:14:54:06
Time code source : Group of pictures header
Stream size : 922 MiB (90%)
Color primaries : BT.601 NTSC
Transfer characteristics : BT.601
Matrix coefficients : BT.601
Audio #1
ID : 189 (0xBD)-128 (0x80)
Format : AC-3
Format/Info : Audio Coding 3
Mode extension : CM (complete main)
Format settings, Endianness : Big
Muxing mode : DVD-Video
Duration : 29mn 40s
Bit rate mode : Constant
Bit rate : 192 Kbps
Channel(s) : 2 channels
Channel positions : Front: L R
Sampling rate : 48.0 KHz
Bit depth : 16 bits
Compression mode : Lossy
Stream size : 40.8 MiB (4%)
Audio #2
ID : 189 (0xBD)-129 (0x81)
Format : AC-3
Format/Info : Audio Coding 3
Mode extension : CM (complete main)
Format settings, Endianness : Big
Muxing mode : DVD-Video
Duration : 29mn 40s
Bit rate mode : Constant
Bit rate : 192 Kbps
Channel(s) : 2 channels
Channel positions : Front: L R
Sampling rate : 48.0 KHz
Bit depth : 16 bits
Compression mode : Lossy
Stream size : 40.8 MiB (4%)
Menu

Коммунистический Голливуд

Есть на торрентах
Три русские девушки Three Russian Girls 1943 - нет
Мальчик из Сталинграда The Boy from Stalingrad 1943 - DVD +, заказан перевод +
Северная звезда The North Star 1943 - DVD +, субтитры +, заказана озвучка +
Потомство дракона Dragon Seed 1944 - DVDRip +, заказан перевод на август +
Миссия в Москву Mission to Moscow 1943 - (DVD, Любительский одноголосый) (Готов полностью)
Песнь о России Song of Russia 1944 - (VHSRip, Профессиональный (двухголосый)) +
Дни славы Days of Glory 1944 - (DVD, субтитры) + заказана и сделана озвучка (надо собрать DVD)
DVD на amazon.com
Мальчик из Сталинграда 1943
The North Star 1943
Миссия в Москву Mission to Moscow (Michael Curtiz) [1943].torrent
Торрент: Зарегистрирован [ 2014-06-29 09:16 ]

Скачать .torrent

Скачать

12 KB

Статус: проверено
Скачан: 2 раз
Размер: 4,35 GB
 
[Профиль] [ЛС]

bot

Создавать темы 14-Июл-2014 19:06 (спустя 15 дней)

Топик был перенесен из форума Новые релизы kosmoaelita.com в форум Разное
$Shorox
 
Быстрый ответ

Имя:

            
Для отправки сообщений необходимо включить JavaScript
Показать сообщения:    
Ответить на тему

Текущее время: 24-Июл 08:07

Часовой пояс: UTC + 3:30



Вы не можете начинать темы
Вы можете отвечать на сообщения
Вы не можете редактировать свои сообщения
Вы не можете удалять свои сообщения
Вы не можете голосовать в опросах
Вы не можете прикреплять файлы к сообщениям
Вы можете скачивать файлы