Аманда и инопланетянин / Amanda & the Alien / Amanda and the Alien (Jon Kroll / Джон Кролл) [1995 г., фантастика, комедия,, TVRip] АО (Володарский с VHS)

Ответить на тему
 
Автор Сообщение

admin ®

Пол: Мужской

Стаж: 5 лет 2 месяца

Сообщений: 4748

Откуда: Україна

Создавать темы 25-Июн-2014 22:18

[Цитировать]

Аманда и инопланетянин / Amanda & the Alien / Amanda and the Alien
Год выпуска: 1995
Страна: США, IRS Media
Жанр: фантастика, комедия,
Продолжительность: 01:33:50
Перевод: Авторский одноголосый Володарский с VHS
Режиссер: Jon Kroll / Джон Кролл
В ролях:
John Diehl ... Colonel Rosencrans
Michael Dorn ... Lieutenant Vint
Stacy Keach ... Emmitt Mallory
David Millbern ... Lieutenant LeBeau
Dan O'Connor ... Nick
Raymond D. Turner ... Mac
Alex Meneses ... Connie Flores
J. Marvin Campbell ... Guard
Nicole Eggert ... Amanda Patterson
Marcia Moran ... Shoper (as Marcia Shapiro)
Carol-Ann Plante ... Jessica (as Carol-Ann Planté)
René Ashton ... Shanda (as René Weisser)
Michael Bendetti ... Charlie Nobles
Edwina Moore ... News Anchor
Brett Golov ... Slacker
Описание: На Землю прилетают инопланетяне. Они имеют несколько несвойственных людям особенностей: они могут «занять» тело любого человека, могут заниматься любовью то в теле женщины, то в теле мужчины, они возбуждаются от специй, но кроме того они и опасны, так как поедают живых людей. Инопланетяне уже засветились, уничтожив нескольких людей. Поэтому спецслужбы решают их ликвидировать. Двум инопланетянам удаётся убежать — они захватили два тела, и теперь они мужчина и женщина. За ними гонится ФБР, и новые «люди» пытаются найти помощь среди людей.
Один из инопланетян знакомится с Амандой. Аманда тоже привлекательная молодая девушка, которая работает в магазине одежды. Её жизнь ничем не примечательна — она обычная девушка. Парень Аманды ей изменил. Аманда хочет отомстить ему, и по её просьбе её новый друг-инопланетянин съедает его и занимает его тело. Инопланетянин влюбляется в Аманду, и они становятся любовниками. Новый друг по душе девушке и она помогает ему спастись от преследования спецслужб.

Качество: TVRip
Формат: MKV
Видео: XVID, 1100 кбит/с, 624x464, 23.976 к/с
Аудио 1: Русский АО (Володарский с VHS) (AC3, 2 ch, 192 Кбит/с)
Аудио 2: Английский (MP3, 2 ch, 128 Кбит/с)
Работа над релизом:
Видеоряд найден на CG
Синхрон русской дорожки - sasha20072007 (kosmoaelita)



Пример русской озвучки

Дополнительно

рейтинг MPAA лицам до 17 лет обязательно присутствие взрослого
Also Known As (AKA)
(original title) Amanda & the Alien
Germany Amanda und der Außerirdische
UK Alien Love
Greece (video title) Exogiini elxi
================================================
Для Украины: рип дополнительно залит в файлохранилище
Для удаления,добавления и извлечения дорожек в mkv используйте бесплатную портативную mkvmerge GUI 6.6.0
Для присоединения потом дорожек к avi воспользуйтесь VirtualDubMod

Отзывы

MediaInfo

Общее
Уникальный идентификатор : 184358368942304868104301602347417441241 (0x8AB2215CF13CD048A2EBCC24645D93D9)
Полное имя : H:\1111\Amanda & the Alien\Amanda and the Alien1995.Xvid.TVRip.Rus.kosmoaelita.mkv
Формат : Matroska
Версия формата : Version 4 / Version 2
Размер файла : 973 Мбайт
Продолжительность : 1 ч. 33 м.
Общий поток : 1449 Кбит/сек
Название фильма : Amanda & the Alien / 1995 / Релиз www.kosmoaelita.com
Дата кодирования : UTC 2014-06-25 22:06:33
Программа кодирования : mkvmerge v6.6.0 ('The Edge Of The In Between') built on Dec 7 2013 13:21:48
Библиотека кодирования : libebml v1.3.0 + libmatroska v1.4.1
Видео
Идентификатор : 1
Формат : MPEG-4 Visual
Профиль формата : Advanced Simple@L5
Параметр BVOP формата : Да
Параметр QPel формата : Нет
Параметр GMC формата : Без точки перехода
Параметр матрицы формата : Default (H.263)
Идентификатор кодека : V_MS/VFW/FOURCC / XVID
Идентификатор кодека/Подсказка : XviD
Продолжительность : 1 ч. 33 м.
Битрейт : 1100 Кбит/сек
Ширина : 624 пикселя
Высота : 464 пикселя
Соотношение сторон : 4:3
Режим частоты кадров : Постоянный
Частота кадров : 23,976 кадра/сек
Цветовое пространство : YUV
Субдискретизация насыщенности : 4:2:0
Битовая глубина : 8 бит
Тип развёртки : Прогрессивная
Метод сжатия : С потерями
Бит/(Пиксели*Кадры) : 0.159
Размер потока : 739 Мбайт (76%)
Библиотека кодирования : XviD 1.1.0 (UTC 2005-11-22)
Default : Да
Forced : Нет
Аудио #1
Идентификатор : 2
Формат : AC-3
Формат/Информация : Audio Coding 3
Расширение режима : CM (complete main)
Параметр Endianness формата : Big
Идентификатор кодека : A_AC3
Продолжительность : 1 ч. 33 м.
Вид битрейта : Постоянный
Битрейт : 192 Кбит/сек
Каналы : 2 канала
Расположение каналов : Front: L R
Частота : 48,0 КГц
Битовая глубина : 16 бит
Метод сжатия : С потерями
Размер потока : 129 Мбайт (13%)
Заголовок : Русский АО (Володарский с VHS)
Язык : Russian
Default : Да
Forced : Нет
Аудио #2
Идентификатор : 3
Формат : MPEG Audio
Версия формата : Version 1
Профиль формата : Layer 3
Режим : Joint stereo
Расширение режима : MS Stereo
Идентификатор кодека : A_MPEG/L3
Идентификатор кодека/Подсказка : MP3
Продолжительность : 1 ч. 33 м.
Вид битрейта : Постоянный
Битрейт : 128 Кбит/сек
Каналы : 2 канала
Частота : 48,0 КГц
Метод сжатия : С потерями
Размер потока : 85,9 Мбайт (9%)
Библиотека кодирования : LAME3.97b
Настройки программы : -m j -V 4 -q 2 -lowpass 17 -b 128
Язык : English
Default : Нет
Forced : Нет

Скриншоты
















[Профиль] [ЛС]

Гость

Пол: Не указан

Создавать темы 29-Июн-2014 20:25 (спустя 3 дня)

[Цитировать]

а где собсна фильм то?
 

Гость

Пол: Не указан

Создавать темы 30-Июн-2014 18:03 (спустя 21 час)

[Цитировать]

5636а где собсна фильм то?
ты членский взнос оплатить наверное забыл al
ведь в магазине сыр французский никто забесплатно не выдаст...даже если ты голодный туда придешь ap
 

Гость

Пол: Не указан

Создавать темы 30-Июн-2014 18:06 (спустя 3 минуты)

[Цитировать]

сыр маасдам дорогой
 
Показать сообщения:    
Ответить на тему

Текущее время: 23-Ноя 22:19

Часовой пояс: UTC + 3:30



Вы не можете начинать темы
Вы не можете отвечать на сообщения
Вы не можете редактировать свои сообщения
Вы не можете удалять свои сообщения
Вы не можете голосовать в опросах
Вы не можете прикреплять файлы к сообщениям
Вы не можете скачивать файлы