Неземное / The Unearthly (Boris Petroff / Борис Петров) [1957 г., ужасы, фантастика, DVDRip] ЛО (den904), СТ (kosmoaelita, Severnyj)

Ответить на тему
 
Автор Сообщение

admin ®

Пол: Мужской

Стаж: 5 лет 3 месяца

Сообщений: 4748

Откуда: Україна

Создавать темы 24-Июн-2014 17:11

[Цитировать]

Неземное / The Unearthly
Релиз - kosmoaelita. com
Год выпуска: 1957
Страна: США, AB-PT Pictures Corp.
Жанр: ужасы, фантастика
Продолжительность: 01:10:02
Перевод: ЛО den904 по субтитрам на слух с английского Severnyj
Режиссер: Boris Petroff / Борис Петров
В ролях:
John Carradine ... Dr. Charles Conway
Myron Healey ... Mark Houston (as Myron Healy)
Allison Hayes ... Grace Thomas
Marilyn Buferd ... Dr. Sharon Gilchrist (as Marylyn Buferd)
Arthur Batanides ... Danny Green
Sally Todd ... Natalie Andries
Tor Johnson ... Lobo II
Roy Gordon ... Dr. Loren Wright
Guy Prescott ... Police Captain George Reagan
Raymond Guth ... Police Officer Miller (as Raymond Guta)
Harry Fleer ... Harry Jedrow
Gloria Petroff ... Screaming Woman
Paul McWilliams ... Police Officer Ed
Описание: Профессор Чарльз Конвей — безумный ученый, вырастивший 16-ю железу, теоретически способную дать человеку бессмертие. Однако для завершения экспериментов ему нужны здоровые молодые пациенты. Помощник профессора доктор Райт приводит к нему одиноких людей, не имеющих родных и близких. Доктор Конвей обещает вылечить их от депрессии и других болезней и одновременно проводит на них свои эксперименты, приводящие к непредсказуемым и чудовищным результатам.…
Релиз

Качество: DVDRip
Формат: MKV
Видео: x264, 1899 кбит/с, 794x480@670x480, 23.976 к/с
Аудио 1: Русский Русский ЛО (den904) (AC3, 2 ch, 192 Кбит/с)
Аудио 2: Английский (АС3, 1 ch, 224 Кбит/с)
Субтитры : Русский (kosmoaelita,Severnyj)
Работа над релизом:
Релиз kosmoaelita
Видеоряд найден на KG
Перевод на слух с англ. по заказу kosmoaelita - Severnyj
Русская озвучка по заказу kosmoaelita - den904



Пример русских озвучки и субтитров

Дополнительно

слоган «An army of mutants on a mission from hell!»
Also Known As (AKA)
(original title) The Unearthly
Finland Kauhutohtori
Italy La casa dei mostri
USA (working title) House of the Monsters
USA (working title) Night of the Monsters
Venezuela Nido de monstruos
================================================
Для Украины: рип и оригинальный ДВД дополнительно залиты в файлохранилище
Для удаления,добавления и извлечения дорожек в mkv используйте бесплатную портативную mkvmerge GUI 6.6.0
Для присоединения потом дорожек к avi воспользуйтесь VirtualDubMod

Отзывы

MediaInfo

Общее
Уникальный идентификатор : 208016674481206665968390021368122042048 (0x9C7E8DE21DF04A4F988C0AB26379E6C0)
Полное имя : N:\The Unearthly 1957.x264.DVDRip.Rus.kosmoaelita.mkv
Формат : Matroska
Версия формата : Version 4 / Version 2
Размер файла : 1,13 Гбайт
Продолжительность : 1 ч. 10 м.
Общий поток : 2320 Кбит/сек
Название фильма : The Unearthly (1957) / Релиз www.kosmoaelita.com
Дата кодирования : UTC 2014-11-17 10:58:28
Программа кодирования : mkvmerge v6.6.0 ('The Edge Of The In Between') built on Dec 1 2013 17:55:00
Библиотека кодирования : libebml v1.3.0 + libmatroska v1.4.1
Attachements : The Unearthly _1957_ USA_.jpg
DURATION : 01:10:01.792000000
NUMBER_OF_FRAMES : 131306
NUMBER_OF_BYTES : 117650176
_STATISTICS_WRITING_APP : mkvmerge v7.3.0 ('Nouages') 64bit built on Oct 22 2014 18:53:34
_STATISTICS_WRITING_DATE_UTC : 2014-10-28 17:25:36
_STATISTICS_TAGS : BPS DURATION NUMBER_OF_FRAMES NUMBER_OF_BYTES
Видео
Идентификатор : 1
Формат : AVC
Формат/Информация : Advanced Video Codec
Профиль формата : High@L3.1
Параметр CABAC формата : Да
Параметр ReFrames формата : 10 кадров
Идентификатор кодека : V_MPEG4/ISO/AVC
Продолжительность : 1 ч. 10 м.
Битрейт : 1899 Кбит/сек
Ширина : 670 пикселей
Высота : 480 пикселей
Соотношение сторон : 1,654
Режим частоты кадров : Постоянный
Частота кадров : 23,976 кадра/сек
Цветовое пространство : YUV
Субдискретизация насыщенности : 4:2:0
Битовая глубина : 8 бит
Тип развёртки : Прогрессивная
Бит/(Пиксели*Кадры) : 0.246
Размер потока : 931 Мбайт (80%)
Заголовок : Релиз www.kosmoaelita.com
Библиотека кодирования : x264 core 142 r2479 dd79a61
Настройки программы : cabac=1 / ref=10 / deblock=1:-2:-2 / analyse=0x3:0x133 / me=umh / subme=10 / psy=1 / psy_rd=1.00:0.15 / mixed_ref=1 / me_range=28 / chroma_me=1 / trellis=2 / 8x8dct=1 / cqm=0 / deadzone=21,11 / fast_pskip=0 / chroma_qp_offset=-3 / threads=3 / lookahead_threads=1 / sliced_threads=0 / nr=0 / decimate=0 / interlaced=0 / bluray_compat=0 / constrained_intra=0 / bframes=9 / b_pyramid=2 / b_adapt=2 / b_bias=0 / direct=3 / weightb=1 / open_gop=0 / weightp=2 / keyint=240 / keyint_min=23 / scenecut=40 / intra_refresh=0 / rc_lookahead=60 / rc=2pass / mbtree=0 / bitrate=1899 / ratetol=3.0 / qcomp=0.60 / qpmin=0 / qpmax=69 / qpstep=4 / cplxblur=20.0 / qblur=0.5 / vbv_maxrate=14000 / vbv_bufsize=14000 / nal_hrd=none / filler=0 / ip_ratio=1.40 / pb_ratio=1.30 / aq=1:1.00
Язык : English
Default : Да
Forced : Нет
DURATION : 01:10:01.781000000
NUMBER_OF_FRAMES : 100742
NUMBER_OF_BYTES : 996100209
_STATISTICS_WRITING_APP : mkvmerge v7.3.0 ('Nouages') 64bit built on Oct 22 2014 18:53:34
_STATISTICS_WRITING_DATE_UTC : 2014-10-28 17:25:36
_STATISTICS_TAGS : BPS DURATION NUMBER_OF_FRAMES NUMBER_OF_BYTES
Аудио #1
Идентификатор : 2
Формат : AC-3
Формат/Информация : Audio Coding 3
Расширение режима : CM (complete main)
Параметр Endianness формата : Big
Идентификатор кодека : A_AC3
Продолжительность : 1 ч. 10 м.
Вид битрейта : Постоянный
Битрейт : 192 Кбит/сек
Каналы : 2 канала
Расположение каналов : Front: L R
Частота : 48,0 КГц
Битовая глубина : 16 бит
Метод сжатия : С потерями
Размер потока : 96,2 Мбайт (8%)
Заголовок : Русский ЛО (den904 для kosmoaelita.com)
Язык : Russian
Default : Да
Forced : Нет
Аудио #2
Идентификатор : 3
Формат : AC-3
Формат/Информация : Audio Coding 3
Расширение режима : CM (complete main)
Параметр Endianness формата : Big
Идентификатор кодека : A_AC3
Продолжительность : 1 ч. 10 м.
Вид битрейта : Постоянный
Битрейт : 224 Кбит/сек
Каналы : 1 канал
Расположение каналов : Front: C
Частота : 48,0 КГц
Битовая глубина : 16 бит
Метод сжатия : С потерями
Размер потока : 112 Мбайт (10%)
Язык : English
Default : Нет
Forced : Нет
Текст #1
Идентификатор : 4
Формат : VobSub
Режим смешивания : zlib
Идентификатор кодека : S_VOBSUB
Идентификатор кодека/Информация : The same subtitle format used on DVDs
Заголовок : Русский (kosmoaelita,Severnyj) VobSub
Язык : Russian
Default : Да
Forced : Нет
Текст #2
Идентификатор : 5
Формат : UTF-8
Идентификатор кодека : S_TEXT/UTF8
Идентификатор кодека/Информация : UTF-8 Plain Text
Заголовок : Русский (kosmoaelita,Severnyj) srt
Язык : Russian
Default : Нет
Forced : Нет

Пример субтитров

1
00:00:19,613 --> 00:00:24,362
"Неземное"
(The Unearthly, 1957г)
2
00:02:02,168 --> 00:02:04,347
Скажите доктору Конвею,
что мы приехали.
3
00:02:04,402 --> 00:02:07,496
Лоурен. Рад вас видеть.
4
00:02:07,787 --> 00:02:11,911
Спасибо, Чарльз.
Это Грейс Томас, пациентка,
о которой я говорил по телефону.
5
00:02:12,084 --> 00:02:13,170
Доктор Конвей.
6
00:02:13,340 --> 00:02:16,607
Рад знакомству, мисс Томас.
Доктор Райт мне много о вас рассказывал.
7
00:02:16,725 --> 00:02:18,545
Пойдёмте в кабинет.
8
00:02:32,593 --> 00:02:35,600
Мисс Томас, хочу познакомить вас
со своей помощницей, доктором Гилкрист.
9
00:02:35,756 --> 00:02:38,724
Приятно познакомиться, мисс Томас.
Мы рады, что вы к нам присоединились.
-------------------------------
756
01:09:21,864 --> 01:09:24,664
Марк, пожалуйста,
отвезите меня домой.
757
01:09:24,794 --> 01:09:28,715
Да. Да, конечно.
Это часть моей работы.
758
01:09:30,575 --> 01:09:31,976
Понятно.
759
01:09:34,162 --> 01:09:36,162
Эй!
760
01:09:50,235 --> 01:09:51,355
КОНЕЦ

Скриншоты






Скринлист



Последний раз редактировалось: admin (2014-11-17 14:50), всего редактировалось 4 раз(а)
[Профиль] [ЛС]

admin ®

Пол: Мужской

Стаж: 5 лет 3 месяца

Сообщений: 4748

Откуда: Україна

Создавать темы 11-Июл-2014 00:08 (спустя 16 дней)

[Цитировать]

Добавлена русская озвучка от den904
[Профиль] [ЛС]

Гость

Пол: Не указан

Создавать темы 13-Июл-2014 16:40 (спустя 2 дня 16 часов)

[Цитировать]

Спасибо!
А вот нескромный вопрос, - а чего так много дублированных релизеров на раздаче?
 

Гость

Пол: Не указан

Создавать темы 13-Июл-2014 16:49 (спустя 9 минут)

[Цитировать]

Плохой интернет с мобильной флешки, рвется связь и каждый раз меняется адрес ай-пи (вы не видите этих адресов), а трекер обновляется только раз в несколько часов. А каждый новый адрес для него - новый юзер. После обновления трекера все левые адреса и подключения исчезнут.
 

Гость

Пол: Не указан

Создавать темы 13-Июл-2014 16:53 (спустя 3 минуты)

[Цитировать]

admin2
Спасибо.
 

$Shorox

Пол: Мужской

Стаж: 4 года 11 месяцев

Сообщений: 1890

Создавать темы 13-Июл-2014 16:54 (спустя 25 секунд)

[Цитировать]

DEICIDE,
У меня связь постоянно обрывается. IP серый. При новом включении IP меняется. И снова в сидерах появляюсь.
Может быть из-за этого.
[Профиль] [ЛС]

Гость

Пол: Не указан

Создавать темы 13-Июл-2014 16:56 (спустя 2 минуты)

[Цитировать]

$Shorox
Ага. Спасибо.
admin2 уже объяснил в чем может быть "фишка".
 

admin ®

Пол: Мужской

Стаж: 5 лет 3 месяца

Сообщений: 4748

Откуда: Україна

Создавать темы 17-Ноя-2014 14:49 (спустя 4 месяца 3 дня)

[Цитировать]

Перезалито с лучшим качеством видеоряда
[Профиль] [ЛС]
Быстрый ответ

Имя:

            
Для отправки сообщений необходимо включить JavaScript
Показать сообщения:    
Ответить на тему

Текущее время: 14-Дек 01:48

Часовой пояс: UTC + 3:30



Вы не можете начинать темы
Вы можете отвечать на сообщения
Вы не можете редактировать свои сообщения
Вы не можете удалять свои сообщения
Вы не можете голосовать в опросах
Вы не можете прикреплять файлы к сообщениям
Вы не можете скачивать файлы