Преступная планета / Planet outlaws (Барни А. Сарецки) [1953 г., фантастика, боевик, VHSRip] АО (Трамвай-фильм)

Reply to topic
 
Author Message

admin ®

Gender: Male

Longevity: 7 years 9 months

Posts: 4799

Post 10-Jun-2014 23:57

[Quote]

Преступная планета / Planet outlaws
Год выпуска: 1953
Страна: США, Universal Pictures
Жанр: фантастика, боевик
Продолжительность: 01:08:37
Перевод: Авторский одноголосый Трамвай-фильм
Режиссер: Барни А. Сарецки
В ролях:
Buster Crabbe ... Col. Buck Rogers (archive footage) (as Larry 'Buster' Crabbe)
Constance Moore ... Lt. Wilma Deering (archive footage)
Jackie Moran ... George 'Buddy' Wade (archive footage)
Jack Mulhall ... Capt. Rankin, Hidden City forces (archive footage)
Anthony Warde ... Killer Kane (archive footage)
Philip Ahn ... Prince Tallen of Saturn (archive footage)
C. Montague Shaw ... Dr. Huer, Scientist General (archive footage) (as Montague Shaw)
Guy Usher ... Aldar (archive footage)
William Gould ... Air Marshal Kragg (archive footage)
Henry Brandon ... Capt. Lasca, Kane forces (archive footage)
Описание: Пилот Бак Роджерс с юным пассажиром во время заполярного полета терпят крушение в горах и подвергаются воздействию неизвестного газа. Очнувшись через 500 лет, они узнают, что миром правит тиран Убийца Кейн. Вместе с принцем Толленом они пытаются освободить Землю от власти Кейна.
Качество: VHSRip
Формат: MKV
Видео: x264, 1367 кбит/с, 640x480, 23.976 к/с
Аудио 1: Русский АО (Трамвай-фильм) (AC3, 2 ch, 192 Кбит/с)
Аудио 2: Английский (AC3, 2 ch, 192 Кбит/с)
Работа над релизом:
Видеоряд найден в сети.
Перевод на слух с англ. и озвучка - Трамвай фильм.
Наложение звука - kosmoaelita



Пример русской озвучки

Дополнительно

слоган «ATOMIC WAR comes from outer space!»
================================================
Для Украины: рип и оригинальный ДВД дополнительно залиты в файлохранилище
Для удаления,добавления и извлечения дорожек в mkv используйте бесплатную портативную mkvmerge GUI 6.6.0
Для присоединения потом дорожек к avi воспользуйтесь VirtualDubMod

Знаете ли вы, что...

Сильно сокращенная компиляция сериала о Баке Роджерсе 1939г

Отзывы

MediaInfo

Общее
Уникальный идентификатор : 227503765369447035671975238245343453976 (0xAB27A1A4A6037BC3BD1DEC83570E6318)
Полное имя : E:\Planet outlaws 1953.VHSRip.Rus.kosmoaelita.mkv
Формат : Matroska
Версия формата : Version 4 / Version 2
Размер файла : 877 Мбайт
Продолжительность : 1 ч. 8 м.
Общий поток : 1787 Кбит/сек
Название фильма : Planet outlaws / 1953 / kosmoaelita
Дата кодирования : UTC 2014-06-12 17:58:27
Программа кодирования : mkvmerge v6.6.0 ('The Edge Of The In Between') built on Dec 7 2013 13:21:48
Библиотека кодирования : libebml v1.3.0 + libmatroska v1.4.1
Видео
Идентификатор : 1
Формат : AVC
Формат/Информация : Advanced Video Codec
Профиль формата : Baseline@L3.0
Параметр CABAC формата : Нет
Параметр ReFrames формата : 1 кадр
Идентификатор кодека : V_MPEG4/ISO/AVC
Продолжительность : 1 ч. 8 м.
Битрейт : 1367 Кбит/сек
Ширина : 640 пикселей
Высота : 480 пикселей
Соотношение сторон : 4:3
Режим частоты кадров : Постоянный
Частота кадров : 23,976 кадра/сек
Цветовое пространство : YUV
Субдискретизация насыщенности : 4:2:0
Битовая глубина : 8 бит
Тип развёртки : Прогрессивная
Бит/(Пиксели*Кадры) : 0.186
Размер потока : 671 Мбайт (77%)
Язык : English
Default : Да
Forced : Нет
Основные цвета : BT.601 NTSC
Характеристики трансфера : BT.709
Коэффициенты матрицы : BT.601
Аудио #1
Идентификатор : 2
Формат : AC-3
Формат/Информация : Audio Coding 3
Расширение режима : CM (complete main)
Параметр Endianness формата : Big
Идентификатор кодека : A_AC3
Продолжительность : 1 ч. 8 м.
Вид битрейта : Постоянный
Битрейт : 192 Кбит/сек
Каналы : 1 канал
Расположение каналов : Front: C
Частота : 48,0 КГц
Битовая глубина : 16 бит
Метод сжатия : С потерями
Размер потока : 94,2 Мбайт (11%)
Заголовок : Русский АО (Трамвай-фильм)
Язык : Russian
Default : Да
Forced : Нет
Аудио #2
Идентификатор : 3
Формат : AC-3
Формат/Информация : Audio Coding 3
Расширение режима : CM (complete main)
Параметр Endianness формата : Big
Идентификатор кодека : A_AC3
Продолжительность : 1 ч. 8 м.
Вид битрейта : Постоянный
Битрейт : 192 Кбит/сек
Каналы : 1 канал
Расположение каналов : Front: C
Частота : 48,0 КГц
Битовая глубина : 16 бит
Метод сжатия : С потерями
Размер потока : 94,2 Мбайт (11%)
Язык : English
Default : Нет
Forced : Нет

Скриншоты












cd Рип дополнительно залит на mail.ru cd2


Last edited by admin on 2014-06-12 21:08; edited 6 times in total
[Profile] [PM]

admin ®

Gender: Male

Longevity: 7 years 9 months

Posts: 4799

Post 10-Jun-2014 23:59 (after 2 minutes)

[Quote]

Компиляция сериала о Баке Роджерсе 1939г
http://kosmoaelita.com/viewtopic.php?t=235
[Profile] [PM]
Display posts:    
Reply to topic

Current time is: 04-Jun 19:38

All times are UTC + 3



You cannot post new topics in this forum
You cannot reply to topics in this forum
You cannot edit your posts in this forum
You cannot delete your posts in this forum
You cannot vote in polls in this forum
You cannot attach files in this forum
You cannot download files in this forum