Прорыв сквозь время / Провал во времени / Time Burst: The Final Alliance / Time Burst The Final Alliance (Питер Юваль / Peter Yuval) [1989 г., Фантастика, ужасы, VHSRip] АО (Прямостанов)

Reply to topic
DL-List and Torrent activity
Size:  573 MB   |    Registered:  6 years 3 months   |    Completed:  2 times

Seeder not seen: 1 year 5 months

 
   
 
 
 
Author Message

admin ®

Gender: Male

Longevity: 8 years

Posts: 4794

Post 08-Jun-2014 02:55

[Quote]

Прорыв сквозь время / Провал во времени / Time Burst: The Final Alliance
Год выпуска: 1989
Страна: США,
Жанр: Фантастика, ужасы
Продолжительность: 01:32:49
Перевод: Авторский одноголосый Прямостанов
Режиссер: Питер Юваль / Peter Yuval
В ролях:
David Scott King ... Urbane
Gerald Okamura ... Master
Jay Richardson ... Mueller
Michi McGee ... Jane English (as Michiko)
Chet Hood ... Agent #1
Jack Vogel ... Agent #2
Rest of cast listed alphabetically:
Anet Anatelle ... Attractive girl
Mace Bacon ... Osaki
Beano ... Freddie Delago
Phillip Boardman ... Burns
Larry Chiz
Merry Elkins ... Waitress
Billy Frank ... Agent #5
Troy Fromin ... Ox
Alan Fujinami ... Samurai
Описание: Дыра во времени и пространстве свела жителей разных исторических периодов в одной точке. И, как это обычно бывает в литературных и кинематографических произведениях подобного рода, возврат в "прежний мир" возможен лишь при совпадении определенных обстоятельств. В картине Питера Ювэла встречаются рыцарь из средневековья, японский самурай, еще один человек с Востока (некий "Учитель"), наши современники-американцы. Одни настроены вполне миролюбиво, другие - отчаянно-агрессивны. Но проблему можно решить только общими усилиями
Качество: VHSRip
Формат: MKV
Видео: xviD, 462 кбит/с, 640x480, 23.976 к/с
Аудио 1: Русский АО (Прямостанов) (AC3, 2 ch, 192 Кбит/с)
Аудио 2: Английский (AC3, 2 ch, 192 Кбит/с)
Работа над релизом:
Видеоряд найден на CG.
Синхрон. русской дорожки - sasha20072007 (kosmoaelita)
Длинные муз. фрагменті заменены более качественными с англ. дорожки
За рус. дорожку спасибо alenavova



Пример русской озвучки

Дополнительно

слоган «He stole the secret of immortality... Now it may cost him his life!»
Also Known As (AKA)
(original title) Time Burst: The Final Alliance
Germany (video title) American Samurai
Finland (video title) Time Burst: Lopullinen yhteys
Italy (video title) Alleanza finale
================================================
Для Украины: рип и оригинальный ДВД дополнительно залиты в файлохранилище
Для удаления,добавления и извлечения дорожек в mkv используйте бесплатную портативную mkvmerge GUI 6.6.0
Для присоединения потом дорожек к avi воспользуйтесь VirtualDubMod

Отзывы

Фильм просто бомба! С превеликим удовольствием пересмотрю его еще раз, рекомендую всем. Я уверен, что всем этот фильмец будет занемателен. Картина показывает вечные идеалы, которые со временем не утрачивают злободневность. Обращая внимание на то,кто снял киноленту и весьма знаменитых актеров фильмец легко может претендовть на оскар или золотую пальмовую ветвь.
Фильм следует глянуть только ради спецэффектов. Именно туда потратили понты финансов. Сюжет постигнуть не стремитесь, смысла в нем просто нет. Зато компьютерная анимация просто супер. Игра героев на троечку, хотя она очень вытянула бы фильм. Режиссер делал ключевой акцент на спецэффекты. ИМХО у него это паршиво вышло. Так что знающих толк машинной анимации не советую, переживете весьма большое расстройство.
По сути фильм весьма бредовый, но сделан отменно. Должно быть чуть ли не единственный фильм этого режиссера, которые не достает нереальным количеством звезд разной величины. И персонажи плохие и сауетрек. Чуть-чуть нудноваты и затянуты разговоры, но не без легкой иронии. В целом кинокартина не понравилась.
-----------------------------------------------------

MediaInfo

Общее
Уникальный идентификатор : 252656643244242275856178136761945932012 (0xBE13E644CBCC1B6FB354D624DF79C0EC)
Полное имя : N:\Timeburst The Final Alliance 1989.XviD.VHSRip.Rus.kosmoaelita.mkv
Формат : Matroska
Версия формата : Version 4 / Version 2
Размер файла : 573 Мбайт
Продолжительность : 1 ч. 32 м.
Общий поток : 863 Кбит/сек
Название фильма : Прорыв сквозь время - Time Burst - The Final Alliance / 1989 / kosmoaelita
Дата кодирования : UTC 2014-06-07 10:32:32
Программа кодирования : mkvmerge v6.6.0 ('The Edge Of The In Between') built on Dec 7 2013 13:21:48
Библиотека кодирования : libebml v1.3.0 + libmatroska v1.4.1
Видео
Идентификатор : 1
Формат : MPEG-4 Visual
Профиль формата : Advanced Simple@L5
Параметр BVOP формата : Да
Параметр QPel формата : Нет
Параметр GMC формата : Без точки перехода
Параметр матрицы формата : Default (H.263)
Идентификатор кодека : V_MS/VFW/FOURCC / XVID
Идентификатор кодека/Подсказка : XviD
Продолжительность : 1 ч. 32 м.
Битрейт : 462 Кбит/сек
Ширина : 640 пикселей
Высота : 480 пикселей
Соотношение сторон : 4:3
Режим частоты кадров : Постоянный
Частота кадров : 23,976 кадра/сек
Цветовое пространство : YUV
Субдискретизация насыщенности : 4:2:0
Битовая глубина : 8 бит
Тип развёртки : Прогрессивная
Метод сжатия : С потерями
Бит/(Пиксели*Кадры) : 0.063
Размер потока : 306 Мбайт (54%)
Библиотека кодирования : XviD 1.3.0.dev55
Default : Да
Forced : Нет
Аудио #1
Идентификатор : 2
Формат : AC-3
Формат/Информация : Audio Coding 3
Расширение режима : CM (complete main)
Параметр Endianness формата : Big
Идентификатор кодека : A_AC3
Продолжительность : 1 ч. 32 м.
Вид битрейта : Постоянный
Битрейт : 192 Кбит/сек
Каналы : 2 канала
Расположение каналов : Front: L R
Частота : 48,0 КГц
Битовая глубина : 16 бит
Метод сжатия : С потерями
Размер потока : 127 Мбайт (22%)
Заголовок : Русский АО (Прямостанов)
Язык : Russian
Default : Да
Forced : Нет
Аудио #2
Идентификатор : 3
Формат : AC-3
Формат/Информация : Audio Coding 3
Расширение режима : CM (complete main)
Параметр Endianness формата : Big
Идентификатор кодека : A_AC3
Продолжительность : 1 ч. 32 м.
Вид битрейта : Постоянный
Битрейт : 192 Кбит/сек
Каналы : 2 канала
Расположение каналов : Front: L R
Частота : 48,0 КГц
Битовая глубина : 16 бит
Метод сжатия : С потерями
Размер потока : 127 Мбайт (22%)
Язык : English
Default : Нет
Forced : Нет

Скриншоты











cd Рип дополнительно залит на mail.ru cd2
Timeburst The Final Alliance 1989.XviD.VHSRip.Rus.kosmoaelita.mkv.torrent
 GOLD TORRENT! DOWNLOAD TRAFFIC DOES NOT CONSIDER! 
Torrent: Registered [ 2014-06-08 02:55 ]

Download .torrent

Download

23 KB

Status: checked
Completed: 2 times
Size: 573 MB
 
[Profile] [PM]
Display posts:    
Reply to topic

Current time is: 25-Sep 04:37

All times are UTC + 3



You cannot post new topics in this forum
You cannot reply to topics in this forum
You cannot edit your posts in this forum
You cannot delete your posts in this forum
You cannot vote in polls in this forum
You cannot attach files in this forum
You can download files in this forum