Домработница / Homewrecker (Фред Уолтон / Fred Walton) [1992 г., ужасы, фантастика, триллер, драма, VHSRip] АО (Дольский)

Ответить на тему
 
Автор Сообщение

admin ®

Пол: Мужской

Стаж: 5 лет

Сообщений: 4750

Откуда: Україна

Создавать темы 06-Июн-2014 00:24

[Цитировать]

Домработница / Homewrecker
Год выпуска: 1992
Страна: США, Wilshire Court Productions
Жанр: ужасы, фантастика, триллер, драма
Продолжительность: 01:29:01
Перевод: Авторский одноголосый Андрей Дольский
Режиссер: Фред Уолтон / Fred Walton
В ролях: Robby Benson ... David Whitson
Sydney Walsh ... Jane Whitson
Sarah Rose Karr ... Dana Whitson
Kate Jackson ... Lucy (voice)
Curt Hanson ... Admiral Torborg
Lester B. Hanson ... Senator McGrif
Scott Roberts ... Technician
Craig Damon ... Information Officer
Cecil Davis ... Mechanic
James Chance ... Tommy (as James R. chance)
Shawna Schuh ... Tommy's Mother
Описание: Некий ученый перепрограммирует свой компьютер. После этой операции компьютер стал ощущать себя женщиной по имени Люси. Когда этот ученый возвращается вместе со своей женой, с которой они уже не живут вместе, Люси, успевшая в него влюбиться, пытается убить женщину.
Качество: VHSRip
Формат: MKV
Видео: xvid, 1107 кбит/с, 640x480, 23.976 к/с
Аудио 1: Русский АО (А.Дольский) (AC3, 2 ch, 192 Кбит/с)
Аудио 2: Английский (AC3, 2 ch, 192 Кбит/с)
Работа над релизом:
Видеоряд найден на CG
Синхрон русской дорожки - sasha20072007 (kosmoaelita)
Длинные муз. фрагменты заменены более качественными с англ. дорожки



Пример русской озвучки

Дополнительно

слоган «It cooks. It cleans. It kills»
рейтинг MPAA детям до 13 лет просмотр не желателен
Also Known As (AKA)
(original title) Homewrecker
Germany Computer Love
Finland Tietokoneen otteessa
Hungary Rivális
Italy Il nemico in casa
================================================
Для Украины: рип и оригинальный ДВД дополнительно залиты в файлохранилище
Для удаления,добавления и извлечения дорожек в mkv используйте бесплатную портативную mkvmerge GUI 6.6.0
Для присоединения потом дорожек к avi воспользуйтесь VirtualDubMod

Отзывы

Рецензия

MediaInfo

Общее
Уникальный идентификатор : 205948457773322272377936693446619500751 (0x9AF03AED3F38123FB436B1596B7510CF)
Полное имя : N:\Homewrecker 1992.XviD.VHSRip.Rus.kosmoaelita.mkv
Формат : Matroska
Версия формата : Version 4 / Version 2
Размер файла : 1006 Мбайт
Продолжительность : 1 ч. 29 м.
Общий поток : 1580 Кбит/сек
Название фильма : Homewrecker / 1992 / ЬРелиз kosmoaelita
Дата кодирования : UTC 2014-06-06 21:01:41
Программа кодирования : mkvmerge v6.6.0 ('The Edge Of The In Between') built on Dec 7 2013 13:21:48
Библиотека кодирования : libebml v1.3.0 + libmatroska v1.4.1
Видео
Идентификатор : 1
Формат : MPEG-4 Visual
Профиль формата : Advanced Simple@L4
Параметр BVOP формата : Нет
Параметр QPel формата : Нет
Параметр GMC формата : Без точки перехода
Параметр матрицы формата : Default (H.263)
Идентификатор кодека : V_MS/VFW/FOURCC / XVID
Идентификатор кодека/Подсказка : XviD
Продолжительность : 1 ч. 29 м.
Битрейт : 1197 Кбит/сек
Ширина : 640 пикселей
Высота : 480 пикселей
Соотношение сторон : 4:3
Режим частоты кадров : Постоянный
Частота кадров : 29,970 кадров/сек
Цветовое пространство : YUV
Субдискретизация насыщенности : 4:2:0
Битовая глубина : 8 бит
Тип развёртки : Прогрессивная
Метод сжатия : С потерями
Бит/(Пиксели*Кадры) : 0.130
Размер потока : 762 Мбайт (76%)
Заголовок : Релиз www.kosmoaelita.com
Библиотека кодирования : Magic0432
Default : Да
Forced : Нет
Аудио #1
Идентификатор : 2
Формат : AC-3
Формат/Информация : Audio Coding 3
Расширение режима : CM (complete main)
Параметр Endianness формата : Big
Идентификатор кодека : A_AC3
Продолжительность : 1 ч. 29 м.
Вид битрейта : Постоянный
Битрейт : 224 Кбит/сек
Каналы : 2 канала
Расположение каналов : Front: L R
Частота : 48,0 КГц
Битовая глубина : 16 бит
Метод сжатия : С потерями
Размер потока : 143 Мбайт (14%)
Заголовок : Русский АО (А.Дольский)
Default : Нет
Forced : Нет
Аудио #2
Идентификатор : 3
Формат : MPEG Audio
Версия формата : Version 1
Профиль формата : Layer 3
Режим : Joint stereo
Расширение режима : MS Stereo
Идентификатор кодека : A_MPEG/L3
Идентификатор кодека/Подсказка : MP3
Продолжительность : 1 ч. 29 м.
Вид битрейта : Постоянный
Битрейт : 128 Кбит/сек
Каналы : 2 канала
Частота : 44,1 КГц
Метод сжатия : С потерями
Размер потока : 81,5 Мбайт (8%)
Язык : English
Default : Нет
Forced : Нет

Скриншоты













Последний раз редактировалось: admin (2014-06-07 11:38), всего редактировалось 1 раз
[Профиль] [ЛС]

k-center

Пол: Мужской

Стаж: 4 года 3 месяца

Сообщений: 180

Откуда: Украина

Создавать темы 07-Июн-2014 11:21 (спустя 1 день 10 часов)

[Цитировать]

Предлагаю перевод аннотации:
Некий ученый перепрограммирует свой компьютер. После этой операции компьютер стал ощущать себя женщиной по имени Люси. Когда этот ученый возвращается вместе со своей женой, с которой они уже не живут вместе, Люси, успевшая в него влюбиться, пытается убить женщину.
[Профиль] [ЛС]
Показать сообщения:    
Ответить на тему

Текущее время: 22-Сен 13:17

Часовой пояс: UTC + 3:30



Вы не можете начинать темы
Вы не можете отвечать на сообщения
Вы не можете редактировать свои сообщения
Вы не можете удалять свои сообщения
Вы не можете голосовать в опросах
Вы не можете прикреплять файлы к сообщениям
Вы не можете скачивать файлы