Человек из первого века / Человек первого века / Muz z prvního století / Muz z prvniho stoleti / The Man from the First Century (Oldrich Lipský) [1962 г., Фантастика, ком., HDTVRip-720p] ДБ (к/с Горького), ЛО (Антон Алексеев)

Reply to topic
 
Author Message

admin ®

Gender: Male

Longevity: 7 years 10 months

Posts: 4799

Post 02-Jun-2014 18:21

[Quote]

Человек из первого века / Человек первого века / Muz z prvního století
Год выпуска: 1962
Страна: Чехословакия, Filmové studio Barrandov
Жанр: Фантастика, комедия
Продолжительность: 01:30:17
Перевод 1: Профессиональный Дубляж (к/с Горького)
Перевод 2: ЛО (Антон Алексеев)
Перевод 3: Субтитры
Режиссер: Ольдржих Липский / Oldrich Lipský
В ролях: Milos Kopecký ... Josef, calouník
Radovan Lukavský ... Peter
Anita Kajlichova ... Eve
Vít Olmer ... Adam
Otomar Krejca
Lubomír Lipský
Vladimír Hlavatý
Josef Hlinomaz ... Foreman
Zdenek Rehor
Anna Pitasová
Описание: На ракетном заводе в Страконице готовится к пробному полёту грузовой космический корабль. Всё готово к старту... В предполётной суете выясняется, что командир корабля недоволен своим командирским креслом, его обивкой. И вот, рабочий-обивщик Йозеф отправляется на борт корабля исправлять свой брак. А в это время на космодроме... оркестр в боевой готовности, на трибуне начальство с космонавтами, торжественный момент в самом разгаре... Йозеф же размазывает клей по креслу, попивая пивко, как вдруг... нога соскальзывает и он наступает на кнопку "Старт" на пульте управления. Бабах и корабль отправляется вместе с Йозефом к звёздам. На космодроме начальство в панике, можно представить себе реакцию космонавтов, напрасно сидевших три подготовительных года на грибах и водорослях... Кто это был? - кричит главный начальник... Проходит 500 лет и наш обивщик-космонавт возвращается на Землю в компании со сверхразвитым инопланетным существом и обнаруживает абсолютно новый, неузнаваемый и совершенный мир, изобилующий множеством технических приспособлений, облегчающих жизнь. Но, как оказывается, все эти механизмы не решили основных проблем, мучавших человечество со времён Адама и Евы...
Качество: HDTVRip-720p
Формат: MKV
Видео: x264, 6483 кбит/с, 1280x544, 25 к/с
Аудио 1: Русский ДБ (к/с Горького) (AC3, 2 ch, 192 Кбит/с)
Аудио 1: Русский ЛО (Антон Алексеев) (AC3, 2 ch, 192 Кбит/с)
Аудио 2: Чешский (AC3, 2 ch, 192 Кбит/с)
Субтитры : Русские, чешские, английские
Работа над релизом:
Рип найден в юзенете
В нескольких местах изобр. рассіпается на квадраті.
Синхрон дорожек - sasha20072007 (kosmoaelita)
Фильм дублирован на киностудии имени М. Горького
Режиссер дубляжа М. Сауц, звукооператор дубляжа С. Юрцев
Роли дублируют:
Йозеф - Н. Александрович
Академик - А. Карапетян
Адам - О. Мокшанцев
Эва - В. Чаева
Петр - В. Прокофьев
Сравнение: HDTVRip-720p vs. DVDRip



Пример озвучки А.Алексеева

Дополнительно

Also Known As (AKA)
(original title) Muz z prvního století
Man of the First Century
The Man from the First Century
The Man from the Past
East Germany Der Mann aus dem 1. Jahrhundert
France L'homme du premier siècle
Hungary A Földről jött ember
Poland Czlowiek z pierwszego stulecia
USA Man in Outer Space
World-wide (English title) (informal alternative title) It's All Einstein's Fault
================================================
Для Украины: рип и оригинальный ДВД дополнительно залиты в файлохранилище
Рип дополнительно залит на mail.ru
Для удаления,добавления и извлечения дорожек в mkv используйте бесплатную портативную mkvmerge GUI 6.6.0
Для присоединения потом дорожек к avi воспользуйтесь VirtualDubMod

Отзывы

Не самый удачный фильм великого режиссера, с моей точки зрения.
За раритет в отличном качестве большое спасибо!
-----------------------------
будущее хорошо нарисовано, но увы, утопия - в реальности "человеки первого века" уже захватили всю власть на планете земля. Ну хоть одним глазком глянуть, как "успешные люди" будут выглядеть, если, дай бог, попадут в порядочное общ-во. В общем большое спасибо, отличный фильм!
-------------------------------
Фильм отличный!
Интересно, а признавали его авторы влияние на его сюжет пьесы "Клоп" нашего Маяковского?
-------------------------------
Приятный фильм. Расслабляет, особенно после современных "терминаторов" ... И как это я его в детстве пропустил ???
----------------------------
Интересно, выходил ли этот фильм в прокат? По мне, так это полная антисоветчина.
Центральный герой - человек эпохи развитого социализма, во всей красе.
Кто-нибудь, что-нибудь знает о прокатной судьбе этого фильма?
В списках прокатных фильмов - это было в 1963 году.
--------------------------------------------
В советское время кинотеатр "Иллюзион" проводил маленькую ретроспективу фильмов Ольдржиха Липского. Были показаны три непрокатных фильма этого режиссера: "Образцовый кинематограф Ярослава Гашека" (1956), "Я убил Эйнштейна, господа" (1970), "Четырёх убийств достаточно, дорогая?" (1970).
Вот здесь http://www.inoekino.ru/author.php?id=11795 статья о режиссере, к сожалению, далеко не полная и имеющая ряд ошибок.
-------------------------------------------
Смотрел этот фильм в открытом прокате где-то в 60-х.
В то время шло много иностранных фильмов.
Никакой анти-советчины в нём никто не усматривал.
Наши были круче.
Например - "Человек ниоткуда", "Зайчик", "Ехали мы ехали".
---------------------------------------------
Поскольку в Киеве партийное начальство в те годы было строже, чем московское, не исключаю, что "Человека первого века" могли снять там с проката. Но в Москве эта картина шла свободно, мой отец смотрел её в студенческие годы, она ему очень понравилась.
Пересмотрели её сейчас вместе с отцом. Совершенно не понимаю, что могло вызвать такую реакцию в Киеве, потому что фильм абсолютно просоветский. В картине показано коммунистическое общество будущего, в котором глупый, жадный, насквозь пропитанный частнособственническими инстинктами обойщик оказывается инородным телом. При всей художественной слабости "Человека первого века", лента интересна именно как документ эпохи. Вызывают уважение весьма совершенные спецэффекты и футуристические декорации (архитектор Ян Зазворка).
--------

Рецензия

MediaInfo

Общее
Уникальный идентификатор : 218486209436366898353781544766288157170 (0xA45EE9CF44BB1101BEDA00F546CFD9F2)
Полное имя : H:\ОБЛАКО\111\Muz z prvniho stoleti 1962.x264.HDTVRip.720p.2xRus.kosmoaelita.mkv
Формат : Matroska
Версия формата : Version 4 / Version 2
Размер файла : 4,46 Гбайт
Продолжительность : 1 ч. 30 м.
Общий поток : 7070 Кбит/сек
Название фильма : Человек из первого века / Muz z prvního století / 1962 / kosmoaelita
Дата кодирования : UTC 2014-06-02 14:45:21
Программа кодирования : mkvmerge v6.6.0 ('The Edge Of The In Between') built on Dec 7 2013 13:21:48
Библиотека кодирования : libebml v1.3.0 + libmatroska v1.4.1
Attachment : Yes
Видео
Идентификатор : 1
Формат : AVC
Формат/Информация : Advanced Video Codec
Профиль формата : High@L4.1
Параметр CABAC формата : Да
Параметр ReFrames формата : 11 кадров
Идентификатор кодека : V_MPEG4/ISO/AVC
Продолжительность : 1 ч. 30 м.
Битрейт : 6483 Кбит/сек
Ширина : 1280 пикселей
Высота : 544 пикселя
Соотношение сторон : 2,35:1
Режим частоты кадров : Постоянный
Частота кадров : 25,000 кадров/сек
Цветовое пространство : YUV
Субдискретизация насыщенности : 4:2:0
Битовая глубина : 8 бит
Тип развёртки : Прогрессивная
Бит/(Пиксели*Кадры) : 0.372
Размер потока : 4,01 Гбайт (90%)
Библиотека кодирования : x264 core 120 r2120 0c7dab9
Настройки программы : cabac=1 / ref=11 / deblock=1:-3:-3 / analyse=0x3:0x133 / me=umh / subme=10 / psy=1 / psy_rd=1.15:0.15 / mixed_ref=1 / me_range=32 / chroma_me=1 / trellis=2 / 8x8dct=1 / cqm=0 / deadzone=21,11 / fast_pskip=0 / chroma_qp_offset=-3 / threads=12 / sliced_threads=0 / nr=0 / decimate=0 / interlaced=0 / bluray_compat=0 / constrained_intra=0 / bframes=7 / b_pyramid=2 / b_adapt=2 / b_bias=0 / direct=3 / weightb=1 / open_gop=0 / weightp=2 / keyint=250 / keyint_min=25 / scenecut=40 / intra_refresh=0 / rc_lookahead=60 / rc=2pass / mbtree=1 / bitrate=6483 / ratetol=1.0 / qcomp=0.75 / qpmin=0 / qpmax=69 / qpstep=4 / cplxblur=20.0 / qblur=0.5 / vbv_maxrate=50000 / vbv_bufsize=62500 / nal_hrd=none / ip_ratio=1.40 / aq=1:0.80
Язык : Czech
Default : Да
Forced : Нет
Аудио #1
Идентификатор : 2
Формат : AC-3
Формат/Информация : Audio Coding 3
Расширение режима : CM (complete main)
Параметр Endianness формата : Big
Идентификатор кодека : A_AC3
Продолжительность : 1 ч. 30 м.
Вид битрейта : Постоянный
Битрейт : 192 Кбит/сек
Каналы : 2 канала
Расположение каналов : Front: L R
Частота : 48,0 КГц
Битовая глубина : 16 бит
Метод сжатия : С потерями
Размер потока : 124 Мбайт (3%)
Заголовок : Русский (Дубляж к/с им. Горького)
Язык : Russian
Default : Да
Forced : Нет
Аудио #2
Идентификатор : 3
Формат : AC-3
Формат/Информация : Audio Coding 3
Расширение режима : CM (complete main)
Параметр Endianness формата : Big
Идентификатор кодека : A_AC3
Продолжительность : 1 ч. 30 м.
Вид битрейта : Постоянный
Битрейт : 192 Кбит/сек
Каналы : 2 канала
Расположение каналов : Front: L R
Частота : 48,0 КГц
Битовая глубина : 16 бит
Метод сжатия : С потерями
Размер потока : 124 Мбайт (3%)
Заголовок : Русский ЛО (А.Алексеев)
Язык : Russian
Default : Нет
Forced : Нет
Аудио #3
Идентификатор : 4
Формат : AC-3
Формат/Информация : Audio Coding 3
Расширение режима : CM (complete main)
Параметр Endianness формата : Big
Идентификатор кодека : A_AC3
Продолжительность : 1 ч. 30 м.
Вид битрейта : Постоянный
Битрейт : 192 Кбит/сек
Каналы : 2 канала
Расположение каналов : Front: L R
Частота : 48,0 КГц
Битовая глубина : 16 бит
Метод сжатия : С потерями
Размер потока : 124 Мбайт (3%)
Язык : Czech
Default : Нет
Forced : Нет
Текст #1
Идентификатор : 5
Формат : VobSub
Режим смешивания : zlib
Идентификатор кодека : S_VOBSUB
Идентификатор кодека/Информация : The same subtitle format used on DVDs
Язык : Russian
Default : Нет
Forced : Нет
Текст #2
Идентификатор : 6
Формат : VobSub
Режим смешивания : zlib
Идентификатор кодека : S_VOBSUB
Идентификатор кодека/Информация : The same subtitle format used on DVDs
Язык : Czech
Default : Нет
Forced : Нет
Текст #3
Идентификатор : 7
Формат : VobSub
Режим смешивания : zlib
Идентификатор кодека : S_VOBSUB
Идентификатор кодека/Информация : The same subtitle format used on DVDs
Язык : English
Default : Нет
Forced : Нет
Текст #4
Идентификатор : 8
Формат : UTF-8
Идентификатор кодека : S_TEXT/UTF8
Идентификатор кодека/Информация : UTF-8 Plain Text
Язык : English
Default : Нет
Forced : Нет
Меню
00:08:58.600 : en:00:08:58.600
00:23:00.720 : en:00:23:00.720
00:31:24.160 : en:00:31:24.160
00:40:58.440 : en:00:40:58.440
00:49:28.360 : en:00:49:28.360
00:56:55.560 : en:00:56:55.560
01:06:59.160 : en:01:06:59.160
01:18:34.280 : en:01:18:34.280
01:30:17.240 : en:01:30:17.240

Скриншоты






















cd Рип дополнительно залит на mail.ru cd2 cd DVDRip cd2


Last edited by admin on 2014-06-02 18:46; edited 1 time in total
[Profile] [PM]

admin ®

Gender: Male

Longevity: 7 years 10 months

Posts: 4799

Post 02-Jun-2014 18:46 (after 25 minutes)

[Quote]

Сравнение: HDTVRip-720p vs. DVDRip
[Profile] [PM]
Display posts:    
Reply to topic

Current time is: 15-Jul 20:15

All times are UTC + 3



You cannot post new topics in this forum
You cannot reply to topics in this forum
You cannot edit your posts in this forum
You cannot delete your posts in this forum
You cannot vote in polls in this forum
You cannot attach files in this forum
You cannot download files in this forum