Имплант / Implanted (Томас Верретте / Thomas Verrette) [2013 г., фантастика, триллер, драма, детектив, BDRip-720p] ЛД (den904&DeadSno)

Reply to topic
 
Author Message

admin ®

Gender: Male

Longevity: 6 years 7 months

Posts: 4727

Location: Україна

Post 02-Jun-2014 01:20

[Quote]

Имплант / Implanted
Год выпуска: 2013
Страна: США, Gold Lion Films, Skylight Cinema
Жанр: фантастика, триллер, драма, детектив
Продолжительность: 01:25:32
Перевод: Любительский (двухголосый) den904&DeadSno
Режиссер: Томас Верретте / Thomas Verrette
В ролях:
Justice Leak ... Ethan Galloway
Robert Pralgo ... Charles Galloway
Elizabeth Keener ... Camille
Jason Turner ... Milo
Deborah Childs ... Jill Galloway
Tara Jean Verrette ... Alison Galloway
Jackie Goldston ... Linda
Brian James Irvine ... Lucas
Steven Ellison ... Adam
Stephen Caudill ... Dr. Gene Philips
Rest of cast listed alphabetically:
Tone Bell ... Philip
Sarah Elizabeth Gowder ... Reporter
Drew Hester ... Aaron
Micah James ... Allen
Kimberly Jürgen ... Receptionist
Описание: Однажды наступает новый день. Но что делать, если в нем нет места для вчера и, возможно, уже не будет места для завтра? Сын профессора-нейрохирурга отправляется в путешествие по закоулкам своей памяти, чтобы понять, почему у него забрали его память и что за воспоминания ему дали взамен...
Качество: BDRip-720p
Формат: MKV
Видео: x264, 5805 кбит/с, 1280x544, 23.976 к/с
Аудио 1: Русский ЛД (den904&DeadSno) (AC3, 6 ch, 640 Кбит/с)
Аудио 2: Английский (DTS, 6 ch, 1510 Кбит/с)
Работа над релизом:
Рип найден в юзенете.
Перевод: МЕГАПЫХАРЬ & Ох! Студия
Озвучка: Любительская (многоголосая) den904 & DeadSno



Трейлер

Дополнительно

слоган «When your memory lies, how do you find the truth?»
Also Known As (AKA)
(original title) Implanted
Germany (DVD title) Implanted - Die Erinnerung lügt
================================================
Для Украины: рип и оригинальный ДВД дополнительно залиты в файлохранилище
Для удаления,добавления и извлечения дорожек в mkv используйте бесплатную портативную mkvmerge GUI 6.6.0
Для присоединения потом дорожек к avi воспользуйтесь VirtualDubMod

Отзывы

Появилось время, попытался посмотреть... вообще не о чем! Нудно, скучно и однообразно- выключил и стёр.
----------------------------------------
Спасибо за раздачу.
Фильм - гавно. Точнее это даже не фильм, а несвзный набор соплежуйных отрывков перемешанных по времени. Не понятно где реальность, где прошлое, где глюки а где имплант. +Необъяснимые персонажи, которые вообще как будно случайно в фокус попали и что-то сказали... Вобщем, авторы фильма мне должны, т.к. я до конца ЭТО досмотрел.
-----------------------------------------

Рецензия

MediaInfo

Общее
Уникальный идентификатор : 226700686066810551890886295139353609213 (0xAA8CF6C6CC57FA7F877F4EF4995BC3FD)
Полное имя : H:\Implanted 2013.x264.BDRip.720p.Rus.kosmoaelita.mkv
Формат : Matroska
Версия формата : Version 4 / Version 2
Размер файла : 4,75 Гбайт
Продолжительность : 1 ч. 25 м.
Общий поток : 7950 Кбит/сек
Название фильма : Implanted 2013.x264.BDRip.720p.Rus.kosmoaelita
Дата кодирования : UTC 2014-06-01 14:42:52
Программа кодирования : mkvmerge v6.6.0 ('The Edge Of The In Between') built on Dec 7 2013 13:21:48
Библиотека кодирования : libebml v1.3.0 + libmatroska v1.4.1
Видео
Идентификатор : 1
Формат : AVC
Формат/Информация : Advanced Video Codec
Профиль формата : High@L4.1
Параметр CABAC формата : Да
Параметр ReFrames формата : 5 кадров
Идентификатор кодека : V_MPEG4/ISO/AVC
Продолжительность : 1 ч. 25 м.
Битрейт : 5805 Кбит/сек
Ширина : 1280 пикселей
Высота : 544 пикселя
Соотношение сторон : 2,35:1
Режим частоты кадров : Постоянный
Частота кадров : 29,970 кадров/сек
Цветовое пространство : YUV
Субдискретизация насыщенности : 4:2:0
Битовая глубина : 8 бит
Тип развёртки : Прогрессивная
Бит/(Пиксели*Кадры) : 0.278
Размер потока : 3,37 Гбайт (71%)
Библиотека кодирования : x264 core 142 r2389 956c8d8
Настройки программы : cabac=1 / ref=5 / deblock=1:0:0 / analyse=0x3:0x133 / me=umh / subme=7 / psy=1 / psy_rd=1.00:0.00 / mixed_ref=1 / me_range=16 / chroma_me=1 / trellis=1 / 8x8dct=1 / cqm=0 / deadzone=21,11 / fast_pskip=0 / chroma_qp_offset=-2 / threads=18 / lookahead_threads=3 / sliced_threads=0 / nr=0 / decimate=1 / interlaced=0 / bluray_compat=0 / constrained_intra=0 / bframes=3 / b_pyramid=2 / b_adapt=1 / b_bias=0 / direct=1 / weightb=1 / open_gop=0 / weightp=1 / keyint=250 / keyint_min=25 / scenecut=40 / intra_refresh=0 / rc_lookahead=40 / rc=2pass / mbtree=1 / bitrate=5805 / ratetol=1.0 / qcomp=0.60 / qpmin=0 / qpmax=69 / qpstep=4 / cplxblur=20.0 / qblur=0.5 / ip_ratio=1.40 / aq=1:1.00
Default : Да
Forced : Нет
Аудио #1
Идентификатор : 2
Формат : AC-3
Формат/Информация : Audio Coding 3
Расширение режима : CM (complete main)
Параметр Endianness формата : Big
Идентификатор кодека : A_AC3
Продолжительность : 1 ч. 25 м.
Вид битрейта : Постоянный
Битрейт : 640 Кбит/сек
Каналы : 6 каналов
Расположение каналов : Front: L C R, Side: L R, LFE
Частота : 48,0 КГц
Битовая глубина : 16 бит
Метод сжатия : С потерями
Размер потока : 392 Мбайт (8%)
Заголовок : Русский ЛД (den904&DeadSno)
Язык : Russian
Default : Да
Forced : Нет
Аудио #2
Идентификатор : 3
Формат : DTS
Формат/Информация : Digital Theater Systems
Режим : 16
Параметр Endianness формата : Big
Идентификатор кодека : A_DTS
Продолжительность : 1 ч. 25 м.
Вид битрейта : Постоянный
Битрейт : 1509 Кбит/сек
Каналы : 6 каналов
Расположение каналов : Front: L C R, Side: L R, LFE
Частота : 48,0 КГц
Битовая глубина : 16 бит
Метод сжатия : С потерями
Размер потока : 923 Мбайт (19%)
Заголовок : Eng DTS 5.1 1510
Язык : English
Default : Нет
Forced : Нет
Меню
00:00:00.000 : en:00:00:00.000
00:06:59.953 : en:00:06:59.953
00:13:59.972 : en:00:13:59.972
00:20:59.992 : en:00:20:59.992
00:27:59.945 : en:00:27:59.945
00:34:59.965 : en:00:34:59.965
00:41:59.984 : en:00:41:59.984
00:48:59.937 : en:00:48:59.937
00:55:59.957 : en:00:55:59.957
01:02:59.976 : en:01:02:59.976
01:09:59.996 : en:01:09:59.996
01:16:59.949 : en:01:16:59.949

Скриншоты





cd Рип дополнительно залит на mail.ru cd2
[Profile] [PM]
Quick Reply

Name:

            
Heads necessary to send messages to enable JavaScript
Display posts:    
Reply to topic

Current time is: 26-Apr 15:22

All times are UTC + 3.5



You cannot post new topics in this forum
You can reply to topics in this forum
You cannot edit your posts in this forum
You cannot delete your posts in this forum
You cannot vote in polls in this forum
You cannot attach files in this forum
You cannot download files in this forum