Наперегонки со временем / Обогнать время / Running Against Time (Брюс Сет Грин / Bruce Seth Green) [1990 г., фантастика, VHSRip] ПМ (ТВ-6 для СТС)

Reply to topic
 
Author Message

admin ®

Gender: Male

Longevity: 7 years 7 months

Posts: 4811

Post 31-May-2014 15:22

[Quote]

Наперегонки со временем / Обогнать время / Running Against Time
Год выпуска: 1990
Страна: США, Coastline Partners
Жанр: фантастика
Продолжительность: 01:28:40
Перевод: Профессиональный (многоголосый, закадровый) (ТВ-6 для СТС)
Режиссер: Брюс Сет Грин / Bruce Seth Green
В ролях:
Robert Hays ... David Rhodes
Catherine Hicks ... Laura Whittaker
Sam Wanamaker ... Hendryk Koopman, Ph.D.
Wayne Tippit ... FBI Agent Landry
James DiStefano ... Lee Harvey Oswald
Tracy Fraim
Juanita Jennings
Mark Phelan
Paul Scherrer ... Chris Rhodes
Brian Smiar ... President Lyndon B. Johnson
Milt Tarver ... FBI Agent Clemens
Russ Marin ... Doctor w / Chris
Julie Ariola ... Mrs. Rhodes
Duncan Gamble ... Mr. Rhodes
Damion Stevens ... Young David
Описание: Профессор истории Дэвид Родс никогда не мог смириться со смертью своего старшего брата в 1966 году во Вьетнаме. Когда он услышал что известный профессор работает над машиной времени, он немедленно связывается с ним и уговаривает его что бы тот отправил его в прошлое дабы он смог подкорректировать историю. Если Дэвид сможет спасти жизнь Президенту Кеннеди, то Вьетнамской войны не будет и его брат останется жив.
Качество: VHSRip
Формат: MKV
Видео: x264, 668 кбит/с, 720x576@768x576, 23.976 к/с
Аудио 1: Русский ПМ (ТВ-6 для СТС) (AC3, 2 ch, 192 Кбит/с)
Аудио 2: Английский (AC3, 2 ch, 192 Кбит/с)
Работа над релизом:
Рип найден на CG
Синхрон русской дорожки - sasha20072007 (kosmoaelita)



Пример русской озвучки

Дополнительно

слоган «They're on an Adventure to Change History, If They Don't Make It - They're History!»
Also Known As (AKA)
(original title) Running Against Time
Brazil Correndo Contra o Tempo
Spain Contra el tiempo
Finland Matka ajassa
France Au-delà du temps
Greece (video title) Prothesmia thanatou
Sweden Fram och tillbaka i tiden
Venezuela Carrera contra el tiempo
West Germany Wettlauf mit der Zeit
================================================
Для Украины: рип и оригинальный ДВД дополнительно залиты в файлохранилище
Для удаления,добавления и извлечения дорожек в mkv используйте бесплатную портативную mkvmerge GUI 6.6.0
Для присоединения потом дорожек к avi воспользуйтесь VirtualDubMod

Отзывы

Не хуже других фильмов об изменении времени. Фильм добрый, с хорошим концом. Рекомендую
============================================

MediaInfo

Общее
Уникальный идентификатор : 250297984677681504359401892832021836278 (0xBC4DA36C4908EC08BDE2D8B79BABF1F6)
Полное имя : N:\Running Against Time 1990.XviD.VHSRip.Rus.kosmoaelita.mkv
Формат : Matroska
Версия формата : Version 4 / Version 2
Размер файла : 681 Мбайт
Продолжительность : 1 ч. 28 м.
Общий поток : 1073 Кбит/сек
Название фильма : Running Against Time 1990.XviD.VHSRip.Rus.kosmoaelita
Дата кодирования : UTC 2014-05-31 12:00:49
Программа кодирования : mkvmerge v6.6.0 ('The Edge Of The In Between') built on Dec 7 2013 13:21:48
Библиотека кодирования : libebml v1.3.0 + libmatroska v1.4.1
Видео
Идентификатор : 1
Формат : MPEG-4 Visual
Профиль формата : Advanced Simple@L5
Параметр BVOP формата : Да
Параметр QPel формата : Нет
Параметр GMC формата : Без точки перехода
Параметр матрицы формата : Default (H.263)
Идентификатор кодека : V_MS/VFW/FOURCC / XVID
Идентификатор кодека/Подсказка : XviD
Продолжительность : 1 ч. 28 м.
Битрейт : 668 Кбит/сек
Ширина : 720 пикселей
Высота : 576 пикселей
Соотношение сторон : 4:3
Соотношение сторон в оригинале : 5:4
Режим частоты кадров : Постоянный
Частота кадров : 25,000 кадров/сек
Стандарт вещания : PAL
Цветовое пространство : YUV
Субдискретизация насыщенности : 4:2:0
Битовая глубина : 8 бит
Тип развёртки : Прогрессивная
Метод сжатия : С потерями
Бит/(Пиксели*Кадры) : 0.064
Размер потока : 424 Мбайт (62%)
Заголовок : kosmoaelita
Библиотека кодирования : XviD 1.2.1 (UTC 2008-12-04)
Default : Да
Forced : Нет
Аудио #1
Идентификатор : 2
Формат : AC-3
Формат/Информация : Audio Coding 3
Расширение режима : CM (complete main)
Параметр Endianness формата : Big
Идентификатор кодека : A_AC3
Продолжительность : 1 ч. 28 м.
Вид битрейта : Постоянный
Битрейт : 192 Кбит/сек
Каналы : 2 канала
Расположение каналов : Front: L R
Частота : 48,0 КГц
Битовая глубина : 16 бит
Метод сжатия : С потерями
Размер потока : 122 Мбайт (18%)
Заголовок : Русский ПМ (ТВ-6 для СТС)
Язык : Russian
Default : Да
Forced : Нет
Аудио #2
Идентификатор : 3
Формат : AC-3
Формат/Информация : Audio Coding 3
Расширение режима : CM (complete main)
Параметр Endianness формата : Big
Идентификатор кодека : A_AC3
Продолжительность : 1 ч. 28 м.
Вид битрейта : Постоянный
Битрейт : 192 Кбит/сек
Каналы : 2 канала
Расположение каналов : Front: L R
Частота : 48,0 КГц
Битовая глубина : 16 бит
Метод сжатия : С потерями
Размер потока : 122 Мбайт (18%)
Язык : English
Default : Нет
Forced : Нет

Скриншоты









Скринлист

cd Рип дополнительно залит на mail.ru cd2


Last edited by admin on 2016-03-21 00:16; edited 1 time in total
[Profile] [PM]

$Shorox

Gender: Male

Longevity: 7 years 3 months

Posts: 1888

Post 20-Mar-2016 20:32 (after 1 year 9 months)

[Quote]

admin,
Этот рип не лучше?
http://rutracker.org/forum/viewtopic.php?t=5178842
[Profile] [PM]

admin ®

Gender: Male

Longevity: 7 years 7 months

Posts: 4811

Post 21-Mar-2016 00:43 (after 4 hours)

[Quote]

Почти точно такой же самый (чуточку хуже) смайлик+.
Только раздутый в размере и еще раз перекодированный для обрезки черных полей. Совпадает кадр в кадр
[Profile] [PM]
Display posts:    
Reply to topic

Current time is: 07-Apr 10:40

All times are UTC + 3



You cannot post new topics in this forum
You cannot reply to topics in this forum
You cannot edit your posts in this forum
You cannot delete your posts in this forum
You cannot vote in polls in this forum
You cannot attach files in this forum
You cannot download files in this forum