Странный новый мир / Strange New World (Роберт Батлер / Robert Butler) [1975, США, Фантастика, DVDRip-AVC] 3xЛО, СТ

Reply to topic
 
Author Message

admin ®

Gender: Male

Longevity: 7 years 2 months

Posts: 4723

Post 11-Sep-2012 14:13

[Quote]

Странный новый мир / Strange New World
Страна: США, Warner Bros. Television
Жанр: Фантастика
Год выпуска: 1975
Продолжительность: 01:37:32
Перевод 1: ЛО Александр Середа
Перевод 2: ЛО Андрей Бессонов
Перевод 3: ЛО Агент Смит
Cубтитры: Русские Vargnatt
Режиссер: Роберт Батлер / Robert Butler
В ролях: Джон Сэксон, Кэтлин Миллер, Кин Кертис, Джеймс Олсон, Мартин Бесвик, Рэб Браун, Форд Рейни, Билл МакКинни, Геррит Грэм, Синтия Вуд
Описание: Третья часть трилогии.Вернее, своеобразный римейк первых двух. Недалёкое будущее. Группа учёных, путешествующих на космическом корабле, выходит из гибернационного сна и принимает решение вернуться на Землю. Но космонавты не узнают свою родную планету. За время их отсутствия на Земле произошла некая глобальная катастрофа и мир неузнаваемо изменился...

Трилогия:
1. Генезис II / Genesis II / 1973
2. Планета Земля / Planet Earth / 1974
3. Странный новый мир / Strange New World / 1975
Качество: DVDRip (AVC)
Формат: MKV
Видео: x264, 1989 Кбит/с, 720х560 crf=22
Аудио 1: Русский ЛО А.Середа (AC3, 2 ch, 192 Кбит/с)
Аудио 2: Русский ЛО А.Бессонов (AC3, 2 ch, 192 Кбит/с)
Аудио 3: Русский ЛО Агент Смит (AC3, 2 ch, 192 Кбит/с)
Аудио 4: Английский (AC3, 2 ch, 192 Кбит/с)
Субтитры : Русские (Vargnatt)


Intro

Релиз

Рип с ДВД5, синхрон дорожек - sasha20072007, качество рипа - crf=22
Озвучка:
1 Первая дорожка - Александр Середа (sasha200720)
2 Вторая дорожка - Андрей Бессонов
2 Третья дорожка - Агент Смит (Александр Харченко)(дорожка была 2битая", поэтомунесколько фраз вставлены от Бессонова)
Русские субтитры: Vargnatt
Больше о фильме
Сравнение с исходником DVD5
Для Украины: рип и ориг. DVD5 дополнительно залит в файлохранилище
Для удаления,добавления и извлечения дорожек в mkv используйте бесплатную портативную mkvmerge GUI 6.2.0
Для присоединения потом дорожек к avi воспользуйтесь VirtualDubMod

MediaInfo

Общее
Уникальный идентификатор : 234102334369622859385483913432242348200 (0xB01E78367B965737BA1AE337BD1C60A8)
Полное имя : E:\Strange New World 1975.x264.DVDRip.3xRus.kosmoaelita.mkv
Формат : Matroska
Версия формата : Version 4 / Version 2
Размер файла : 1,91 Гбайт
Продолжительность : 1 ч. 37 м.
Общий поток : 2810 Кбит/сек
Название фильма : Strange New World / Странный новый мир / 1975 / rip by sasha20072007
Дата кодирования : UTC 2013-08-18 07:53:43
Программа кодирования : mkvmerge v6.3.0 ('You can't stop me!') built on Jun 28 2013 20:09:41
Библиотека кодирования : libebml v1.3.0 + libmatroska v1.4.0
Attachment : Yes
Видео
Идентификатор : 1
Формат : AVC
Формат/Информация : Advanced Video Codec
Профиль формата : High@L4.1
Параметр CABAC формата : Да
Параметр ReFrames формата : 10 кадров
Идентификатор кодека : V_MPEG4/ISO/AVC
Продолжительность : 1 ч. 37 м.
Битрейт : 1986 Кбит/сек
Ширина : 720 пикселей
Высота : 560 пикселей
Соотношение сторон : 1,286
Режим частоты кадров : Постоянный
Частота кадров : 23,976 кадра/сек
Цветовое пространство : YUV
Субдискретизация насыщенности : 4:2:0
Битовая глубина : 8 бит
Тип развёртки : Прогрессивная
Бит/(Пиксели*Кадры) : 0.205
Размер потока : 1,35 Гбайт (71%)
Библиотека кодирования : x264 core 120 r2164 da19765
Настройки программы : cabac=1 / ref=10 / deblock=1:-2:-2 / analyse=0x3:0x133 / me=umh / subme=11 / psy=1 / psy_rd=1.00:0.15 / mixed_ref=1 / me_range=24 / chroma_me=1 / trellis=2 / 8x8dct=1 / cqm=0 / deadzone=6,6 / fast_pskip=1 / chroma_qp_offset=-3 / threads=12 / sliced_threads=0 / nr=0 / decimate=0 / interlaced=0 / bluray_compat=0 / constrained_intra=0 / bframes=10 / b_pyramid=2 / b_adapt=2 / b_bias=0 / direct=3 / weightb=1 / open_gop=0 / weightp=2 / keyint=220 / keyint_min=22 / scenecut=40 / intra_refresh=0 / rc_lookahead=60 / rc=crf / mbtree=1 / crf=22.0 / qcomp=0.80 / qpmin=0 / qpmax=69 / qpstep=4 / vbv_maxrate=17500 / vbv_bufsize=14000 / crf_max=0.0 / nal_hrd=none / ip_ratio=1.20 / aq=1:0.60
Default : Да
Forced : Нет
Аудио #1
Идентификатор : 2
Формат : AC-3
Формат/Информация : Audio Coding 3
Расширение режима : CM (complete main)
Параметр Endianness формата : Big
Идентификатор кодека : A_AC3
Продолжительность : 1 ч. 37 м.
Вид битрейта : Постоянный
Битрейт : 192 Кбит/сек
Каналы : 2 канала
Расположение каналов : Front: L R
Частота : 48,0 КГц
Битовая глубина : 16 бит
Метод сжатия : С потерями
Размер потока : 134 Мбайт (7%)
Заголовок : Русский (А.Середа - sasha20072007)
Язык : Russian
Default : Да
Forced : Да
Аудио #2
Идентификатор : 3
Формат : AC-3
Формат/Информация : Audio Coding 3
Расширение режима : CM (complete main)
Параметр Endianness формата : Big
Идентификатор кодека : A_AC3
Продолжительность : 1 ч. 37 м.
Вид битрейта : Постоянный
Битрейт : 192 Кбит/сек
Каналы : 2 канала
Расположение каналов : Front: L R
Частота : 48,0 КГц
Битовая глубина : 16 бит
Метод сжатия : С потерями
Размер потока : 134 Мбайт (7%)
Заголовок : Русский (А.Бессонов)
Язык : Russian
Default : Нет
Forced : Нет
Аудио #3
Идентификатор : 4
Формат : AC-3
Формат/Информация : Audio Coding 3
Расширение режима : CM (complete main)
Параметр Endianness формата : Big
Идентификатор кодека : A_AC3
Продолжительность : 1 ч. 37 м.
Вид битрейта : Постоянный
Битрейт : 192 Кбит/сек
Каналы : 2 канала
Расположение каналов : Front: L R
Частота : 48,0 КГц
Битовая глубина : 16 бит
Метод сжатия : С потерями
Размер потока : 134 Мбайт (7%)
Заголовок : Русский ЛО (Агент Смит)
Язык : Russian
Default : Нет
Forced : Нет
Аудио #4
Идентификатор : 5
Формат : AC-3
Формат/Информация : Audio Coding 3
Расширение режима : CM (complete main)
Параметр Endianness формата : Big
Идентификатор кодека : A_AC3
Продолжительность : 1 ч. 37 м.
Вид битрейта : Постоянный
Битрейт : 192 Кбит/сек
Каналы : 2 канала
Расположение каналов : Front: L R
Частота : 48,0 КГц
Битовая глубина : 16 бит
Метод сжатия : С потерями
Размер потока : 134 Мбайт (7%)
Язык : English
Default : Нет
Forced : Нет
Текст #1
Идентификатор : 6
Формат : VobSub
Идентификатор кодека : S_VOBSUB
Идентификатор кодека/Информация : The same subtitle format used on DVDs
Заголовок : Русский (Vargnatt) VobSub
Язык : Russian
Default : Да
Forced : Да
Текст #2
Идентификатор : 7
Формат : UTF-8
Идентификатор кодека : S_TEXT/UTF8
Идентификатор кодека/Информация : UTF-8 Plain Text
Заголовок : Русский (Vargnatt) srt
Язык : Russian
Default : Нет
Forced : Нет
Меню
00:00:00.000 : :Chapter 01
00:10:00.500 : :Chapter 02
00:20:00.000 : :Chapter 03
00:30:00.000 : :Chapter 04
00:40:00.500 : :Chapter 05
00:50:00.000 : :Chapter 06
01:00:00.500 : :Chapter 07
01:10:00.000 : :Chapter 08
01:20:00.000 : :Chapter 09
01:30:00.500 : :Chapter 10

Скриншоты



cd Рип дополнительно залит на mail.ru cd2


Last edited by admin on 2015-04-14 11:56; edited 1 time in total
[Profile] [PM]

Guest

Gender: Unknown

Post 17-Aug-2013 17:30 (after 11 months 6 days)

[Quote]

ещё одна озвучка - кстати самая ранняя - http://kosmoaelita.com/viewtopic.php?p=3467#3467
 

Guest

Gender: Unknown

Post 18-Aug-2013 11:01 (after 17 hours)

[Quote]

Добавлена русская ЛО (Агент Смит) (вставлена пара фраз А.Бессонова)
 

Guest

Gender: Unknown

Post 10-Sep-2015 11:07 (after 2 years)

[Quote]

Дайте скорости)
 

admin ®

Gender: Male

Longevity: 7 years 2 months

Posts: 4723

Post 10-Sep-2015 20:02 (after 8 hours)

[Quote]

Перед торрентом есть ссылка на ОБЛАКО маил.ру
[Profile] [PM]
Quick Reply

Name:

            
Heads necessary to send messages to enable JavaScript
Display posts:    
Reply to topic

Current time is: 17-Nov 20:07

All times are UTC + 3



You cannot post new topics in this forum
You can reply to topics in this forum
You cannot edit your posts in this forum
You cannot delete your posts in this forum
You cannot vote in polls in this forum
You cannot attach files in this forum
You cannot download files in this forum