Ожидание Голиафа / Голиаф ждёт / Goliath Awaits (Кевин Коннор / Kevin Connor) [1981 г., фантастика, триллер, TVRip] ПМ (1 канал "Останкино"), ПД (5 канал Петербург)

Reply to topic
DL-List and Torrent activity
Size:  2.99 GB   |    Registered:  6 years   |    Completed:  1 time

Seeder not seen: 1 year

 
   
 
 
 
Author Message

admin ®

Gender: Male

Longevity: 7 years 9 months

Posts: 4799

Post 26-May-2014 21:20

[Quote]

Ожидание Голиафа / Голиаф ждёт / Goliath Awaits
Год выпуска: 1981
Страна: США, Columbia Pictures Television
Жанр: фантастика, триллер
Продолжительность: 03:05:55
Перевод 1: Профессиональный (двухголосый, закадровый) 5 канал Петербург
Перевод 2: Профессиональный (многоголосый, закадровый) 1 канал "Останкино"
Режиссер: Кевин Коннор / Kevin Connor
В ролях:
Mark Harmon ... Peter Cabot
Christopher Lee ... John McKenzie
Eddie Albert ... Adm. Wiley Sloan
John Carradine ... Ronald Bentley
Alex Cord ... Dr. Sam Marlowe
Robert Forster ... Cmdr. Jeff Selkirk
Frank Gorshin ... Dan Wesker
Jean Marsh ... Dr. Goldman
John McIntire ... Sen. Oliver Bartholomew
Jeanette Nolan ... Mrs. Bartholomew
Duncan Regehr ... Paul Ryker
Emma Samms ... Lea McKenzie
Alan Fudge ... Lew Bascomb
George Innes ... Dave Winter
Lori Lethin ... Maria
Описание:Сентябрь 1939 года. Только что началась Вторая мировая война. Немецкая подводная лодка торпедирует пересекающий Атлантику роскошный океанский лайнер «Голиаф»с сотнями пассажиров на борту. Огромное судно бесследно исчезает в океане.
1981 год. Исследовательское судно случайно обнаруживает затонувший лайнер. Один из аквалангистов, осматривавших борт корабля, неожиданно увидел в задраенном иллюминаторе лицо красивой девушки. Живой девушки! И она оказалась не единственной обитательницей «Голиафа»… Готовится грандиозная спасательная операция. Но не все так просто — гигантский корабль хранит не только выживших, но и их мрачные тайны.

Качество: TVRip
Формат: MKV
Видео: x264, 1800 кбит/с, 704x528, 25 к/с
Аудио 1: Русский ПД (5 канал Петербург) (МР3, 2 ch, 112 Кбит/с)
Аудио 2: Русский ПМ (1 канал "Останкино") (AC3, 2 ch, 192 Кбит/с)
Аудио 3: Английский (AC3, 2 ch, 192 Кбит/с)
Работа над релизом:
Видеоряд найден в сети
Логотип канала замазан фильтром DeLogo
Синхрон англ. дорожки и русской Останкино - sasha20072007 (kosmoaelita)



Пример озвучки 5-го канала

Дополнительно

слоган «Miracle of survival or underwater hell?»
================================================
Для Украины: рип и оригинальный ДВД дополнительно залиты в файлохранилище
Для удаления,добавления и извлечения дорожек в mkv используйте бесплатную портативную mkvmerge GUI 6.6.0
Для присоединения потом дорожек к avi воспользуйтесь VirtualDubMod

Знаете ли вы, что...

Отзывы

Наверное, в свое время был хитом.
Теперь можно посмотреть только для ознакомления. Хотя не спорю, не смотря на "возраст" смотрится с интересом.
Спасибо за раздачу.
--------------------------------------------------
Фильм в свое время был хитом,но и сейчас посмотрела с удовольствием-как приключенческий , без "неприятных" сцен,с желанием поискать что то подобное-"сиквест" например.....оценка 10,спасибо раздающему.
---------------------------------------------------
Любителям фантастики качать обязательно-смотрится даже сейчас лучше большинства штампованных сериалов.Если,конечно,не сильно задумываться о законах физики.Давным-давно смотрел и не мог оторваться,сейчас пересмотрел-впечатления очень хорошие все равно.
Актеры играют очень достойно,и вообще все на уровне.
----------------------------------------------
в СССР фильм показывали только 1 раз по 1 каналу поделен он был на 4серии кажется
тогда фильм понравился
спасибо большое за раздачу смайлик+
качество картинки хороше
------------------------------------------
Из баек про скрытые миры, что очень душевно у Коннора получались (смотри "Вождей Атлантиды", "Землю, забытую Временем", "Путешествие к Центру Земли" ) - наверное самый "сурьезный" и "достоверный" фильм. Несмотря на хронометраж смотрится с интересом и легко. Актерства очень приятные и вобще цельное кино, без гипертрофированной развлекухи. Достаточно драмматичное и малость даже убедительное в плане антуража. Фантастическая фабула фильма подведена так легко и ненавязчиво, что ситуация с 40-ка годами в затонувшем корабле воспринимается абсолютно естественно и правдоподобно. Лиш в редкие моменты, когда сюжет чуток ослабевает, начинаеш задумываться о источниках энергии или цвете кожи обитателей корабля...
Коннор один из тех режиссеров, ремейки фильмов которого действительно хотелось-бы увидеть в будущем. Сценарная составляющая и проработка персонажей - это все сделано для подобного жанрового кино на 5 с плюсом. Прибавить сюда чуть более проработанную среду обитания "затонувших", подвести чуток научно-техническую базу для пущей убедительности, сделать быт выживших менее комфортным и более грубым и реалистичным, а так-же в плане технологии сьемок фильм продвинуть на позицию вперед - получился бы шедевр, ей богу.
--------------------------------------------------------
Такой неожиданный сюжет , просто отпад!! Надо же такое придумать ...
Да , когда-то были силы у Голливуда ..
---------------------------------------
Кино понравилось, несмотря на неувязки )
Помилуйте, это не неувязки. Это полное бессилие и сценариста, и режиссера, и актеров. Ладно, что сюжет - это даже не научная фантастика, мы согласны смотреть любую фантастику, мы ее любим, но пусть будут захватывающие сюжетные линию, пусть будут интриги, страсти, любовь, пусть льются наши слезы, пусть сжимается сердце от жалости к героям. Даже если все это наивно. А тут никого не жалко, потому что все идиоты. А главную героиню в финале хочется придушить и оставить на корабле, а смешной главный герой ее нелепо тащит, надсаживается. Тут я вообще хохотала, а должна была переживать по идее..
-----------------------------------------------------------------

MediaInfo

Общее
Уникальный идентификатор : 236097954978664975899495172221894848886 (0xB19ECFE7C3C93EAAA3C3CF87443AF176)
Полное имя : N:\Goliath Awaits 1981.XviD.TVRip.2xRus.kosmoaelita.mkv
Формат : Matroska
Версия формата : Version 4 / Version 2
Размер файла : 2,99 Гбайт
Продолжительность : 3 ч. 5 м.
Общий поток : 2299 Кбит/сек
Название фильма : Goliath Awaits / 1981 / kosmoaelita
Дата кодирования : UTC 2014-05-26 14:14:51
Программа кодирования : mkvmerge v6.6.0 ('The Edge Of The In Between') built on Dec 7 2013 13:21:48
Библиотека кодирования : libebml v1.3.0 + libmatroska v1.4.1
Видео
Идентификатор : 1
Формат : AVC
Формат/Информация : Advanced Video Codec
Профиль формата : High@L4.1
Параметр CABAC формата : Да
Параметр ReFrames формата : 10 кадров
Идентификатор кодека : V_MPEG4/ISO/AVC
Продолжительность : 3 ч. 5 м.
Битрейт : 1800 Кбит/сек
Ширина : 704 пикселя
Высота : 528 пикселей
Соотношение сторон : 4:3
Режим частоты кадров : Постоянный
Частота кадров : 25,000 кадров/сек
Цветовое пространство : YUV
Субдискретизация насыщенности : 4:2:0
Битовая глубина : 8 бит
Тип развёртки : Прогрессивная
Бит/(Пиксели*Кадры) : 0.194
Размер потока : 2,28 Гбайт (76%)
Заголовок : kosmoaelita
Библиотека кодирования : x264 core 130 r2273 b3065e6
Настройки программы : cabac=1 / ref=10 / deblock=1:1:1 / analyse=0x3:0x133 / me=umh / subme=9 / psy=1 / psy_rd=0.99:0.14 / mixed_ref=1 / me_range=24 / chroma_me=1 / trellis=2 / 8x8dct=1 / cqm=0 / deadzone=21,11 / fast_pskip=1 / chroma_qp_offset=-3 / threads=6 / lookahead_threads=1 / sliced_threads=0 / nr=0 / decimate=1 / interlaced=0 / bluray_compat=0 / constrained_intra=0 / bframes=10 / b_pyramid=2 / b_adapt=2 / b_bias=0 / direct=3 / weightb=1 / open_gop=0 / weightp=2 / keyint=240 / keyint_min=24 / scenecut=40 / intra_refresh=0 / rc_lookahead=60 / rc=2pass / mbtree=1 / bitrate=1800 / ratetol=1.0 / qcomp=0.63 / qpmin=0 / qpmax=69 / qpstep=4 / cplxblur=20.0 / qblur=0.5 / ip_ratio=1.25 / aq=1:0.90
Default : Да
Forced : Нет
Аудио #1
Идентификатор : 2
Формат : MPEG Audio
Версия формата : Version 1
Профиль формата : Layer 3
Режим : Joint stereo
Расширение режима : MS Stereo
Идентификатор кодека : A_MPEG/L3
Идентификатор кодека/Подсказка : MP3
Продолжительность : 3 ч. 5 м.
Вид битрейта : Постоянный
Битрейт : 112 Кбит/сек
Каналы : 2 канала
Частота : 44,1 КГц
Метод сжатия : С потерями
Размер потока : 149 Мбайт (5%)
Заголовок : Русский ПД (5 канал Петербург)
Библиотека кодирования : LAME3.97
Настройки программы : -m j -V 4 -q 2 -lowpass 15.6 -b 112
Язык : Russian
Default : Да
Forced : Нет
Аудио #2
Идентификатор : 3
Формат : AC-3
Формат/Информация : Audio Coding 3
Расширение режима : CM (complete main)
Параметр Endianness формата : Big
Идентификатор кодека : A_AC3
Продолжительность : 3 ч. 5 м.
Вид битрейта : Постоянный
Битрейт : 192 Кбит/сек
Каналы : 2 канала
Расположение каналов : Front: L R
Частота : 48,0 КГц
Битовая глубина : 16 бит
Метод сжатия : С потерями
Размер потока : 255 Мбайт (8%)
Заголовок : Русский ПМ (1 канал "Останкино")
Язык : Russian
Default : Нет
Forced : Нет
Аудио #3
Идентификатор : 4
Формат : AC-3
Формат/Информация : Audio Coding 3
Расширение режима : CM (complete main)
Параметр Endianness формата : Big
Идентификатор кодека : A_AC3
Продолжительность : 3 ч. 5 м.
Вид битрейта : Постоянный
Битрейт : 192 Кбит/сек
Каналы : 2 канала
Расположение каналов : Front: L R
Частота : 48,0 КГц
Битовая глубина : 16 бит
Метод сжатия : С потерями
Размер потока : 255 Мбайт (8%)
Язык : English
Default : Нет
Forced : Нет

Скриншоты
















cd Рип дополнительно залит на mail.ru cd2
Goliath Awaits 1981.XviD.TVRip.2xRus.kosmoaelita.mkv.torrent
 GOLD TORRENT! DOWNLOAD TRAFFIC DOES NOT CONSIDER! 
Torrent: Registered [ 2014-05-26 21:20 ]

Download .torrent

Download

120 KB

Status: checked
Completed: 1 times
Size: 2.99 GB
 
[Profile] [PM]
Display posts:    
Reply to topic

Current time is: 04-Jun 19:30

All times are UTC + 3



You cannot post new topics in this forum
You cannot reply to topics in this forum
You cannot edit your posts in this forum
You cannot delete your posts in this forum
You cannot vote in polls in this forum
You cannot attach files in this forum
You can download files in this forum