Чудовища Берингова моря / Bering Sea Beast (Дон Э. ФонтЛеРой / Don E. FauntLeRoy) [2013 г., фантастика, WEB-DLRip-720p] ПМ

Reply to topic
 
Author Message

admin ®

Gender: Male

Longevity: 6 years 11 months

Posts: 4725

Location: Україна

Post 22-May-2014 23:56

[Quote]

Чудовища Берингова моря / Bering Sea Beast
Год выпуска: 2013
Страна: США, Active Entertainment, Vesuvius Productions
Жанр: фантастика
Продолжительность: 01:25:51
Перевод: Профессиональный (многоголосый, закадровый)
Режиссер: Дон Э. ФонтЛеРой / Don E. FauntLeRoy
В ролях:
Cassandra Scerbo ... Donna (as Cassie Scerbo)
Brandon Beemer ... OweRest of cast listed alphabetically:
Jaqueline Fleming ... Megan
Jonathan Lipnicki ... Joe
Garin Sparks ... Dump Truck Driver
Jimmy Sweetwater ... Jimmy
Lawrence Turner ... Thorne
Описание: В Беринговом море происходят ужасные вещи - люди становятся жертвами чудовищных морских вампиров… На судно «Черная гряда» прибывает новый член экипажа - матрос по имени Оуэн Пауэрс. Здесь его без особого энтузиазма встречает Донна, дочь сурового морского волка. Ее отец Гленн Хантер не объясняет, почему решил устроить этого парня на работу, но ходят шуточные слухи, что тот - его внебрачный сын. Ближе к полуночи команда «Черной гряды» отправляется исследовать участок, который, по их мнению, богат золотом. Брат донны Джо и боцман Джонас совершают погружение, и тут появляются они - кровожадные чудища.
Качество: WEB-DLRip-720p
Формат: MKV
Видео: x264, 3833 кбит/с, 1280x712, 23.976 к/с
Аудио 1: Русский (AC3, 6 ch, 384 Кбит/с)
Аудио 2: Английский (AC3, 6 ch, 384 Кбит/с)
Субтитры : Английские
Работа над релизом:




Nhtqkth

Дополнительно

Also Known As (AKA)
(original title) Bering Sea Beast
USA (DVD title) Beast of the Bering Sea
================================================
Для Украины: рип и оригинальный ДВД дополнительно залиты в файлохранилище
Для удаления,добавления и извлечения дорожек в mkv используйте бесплатную портативную mkvmerge GUI 6.6.0
Для присоединения потом дорожек к avi воспользуйтесь VirtualDubMod

Отзывы

Отвечу сам - сей шедевр абсолютно идентичен творчеству Global Asylum и достоин показа на ТВ-3. Особенно следует отметить элементы плагиата Чужих.
sperelomov сказал(а):
Это "стеб" (исходя из рейтинга и скринов) - типа не у всех нервы выдержат досмотреть подобное, или действительно есть от чего вздрогнуть?
------------------------------------
почему чудовищ ловят экскаватором? о_О
-----------------------------------------

MediaInfo

General
Unique ID : 195020255043878763937378607381559844287 (0x92B788EEE2B3522D884D5D3D711B1DBF)
Complete name : N:\Chydovishe.Berengova.morya.2013.P.WEBDL.720p.mkv.!ut
Format : Matroska
Format version : Version 2
File size : 2.65 GiB
Duration : 1h 25mn
Overall bit rate : 4 411 Kbps
Encoded date : UTC 2014-05-22 17:14:22
Writing application : mkvmerge v4.0.0 ('The Stars were mine') сборка от Jun 6 2010 16:18:42
Writing library : libebml v1.0.0 + libmatroska v1.0.0
Video
ID : 1
Format : AVC
Format/Info : Advanced Video Codec
Format profile : High@L4.0
Format settings, CABAC : Yes
Format settings, ReFrames : 8 frames
Codec ID : V_MPEG4/ISO/AVC
Duration : 1h 25mn
Bit rate : 3 833 Kbps
Width : 1 280 pixels
Height : 712 pixels
Display aspect ratio : 16:9
Frame rate mode : Constant
Frame rate : 23.976 fps
Color space : YUV
Chroma subsampling : 4:2:0
Bit depth : 8 bits
Scan type : Progressive
Bits/(Pixel*Frame) : 0.175
Stream size : 2.25 GiB (85%)
Writing library : x264 core 130 r2273 b3065e6
Encoding settings : cabac=1 / ref=8 / deblock=1:-1:-1 / analyse=0x3:0x133 / me=umh / subme=7 / psy=1 / psy_rd=1.00:0.10 / mixed_ref=1 / me_range=16 / chroma_me=1 / trellis=2 / 8x8dct=1 / cqm=0 / deadzone=21,11 / fast_pskip=0 / chroma_qp_offset=-3 / threads=6 / lookahead_threads=1 / sliced_threads=0 / nr=0 / decimate=1 / interlaced=0 / bluray_compat=0 / constrained_intra=0 / bframes=3 / b_pyramid=2 / b_adapt=2 / b_bias=0 / direct=3 / weightb=1 / open_gop=0 / weightp=2 / keyint=250 / keyint_min=23 / scenecut=40 / intra_refresh=0 / rc_lookahead=50 / rc=2pass / mbtree=1 / bitrate=3833 / ratetol=1.0 / qcomp=0.60 / qpmin=0 / qpmax=69 / qpstep=4 / cplxblur=20.0 / qblur=0.5 / ip_ratio=1.40 / aq=1:1.00
Language : English
Default : Yes
Forced : No
Audio #1
ID : 2
Format : AC-3
Format/Info : Audio Coding 3
Mode extension : CM (complete main)
Format settings, Endianness : Big
Codec ID : A_AC3
Duration : 1h 25mn
Bit rate mode : Constant
Bit rate : 192 Kbps
Channel(s) : 2 channels
Channel positions : Front: L R
Sampling rate : 48.0 KHz
Bit depth : 16 bits
Compression mode : Lossy
Stream size : 118 MiB (4%)
Language : Russian
Default : Yes
Forced : Yes
Audio #2
ID : 3
Format : AC-3
Format/Info : Audio Coding 3
Mode extension : CM (complete main)
Format settings, Endianness : Big
Codec ID : A_AC3
Duration : 1h 25mn
Bit rate mode : Constant
Bit rate : 384 Kbps
Channel(s) : 6 channels
Channel positions : Front: L C R, Side: L R, LFE
Sampling rate : 48.0 KHz
Bit depth : 16 bits
Compression mode : Lossy
Stream size : 236 MiB (9%)
Language : English
Default : No
Forced : No
Text
ID : 4
Format : UTF-8
Codec ID : S_TEXT/UTF8
Codec ID/Info : UTF-8 Plain Text
Language : English
Default : No
Forced : No
Menu
00:00:00.000 : en:1
00:03:08.000 : en:2
00:08:09.000 : en:3
00:13:01.000 : en:4
00:15:57.000 : en:5
00:20:56.000 : en:6
00:26:19.000 : en:7
00:33:31.000 : en:8
00:40:02.000 : en:9
00:46:42.000 : en:10
00:49:27.000 : en:11
00:54:37.000 : en:12
01:01:09.000 : en:13
01:07:54.000 : en:14
01:13:29.000 : en:15
01:22:00.000 : en:16

Скриншоты






cd Рип дополнительно залит на mail.ru cd2


Last edited by admin on 2014-06-16 09:09; edited 4 times in total
[Profile] [PM]

admin ®

Gender: Male

Longevity: 6 years 11 months

Posts: 4725

Location: Україна

Post 22-May-2014 23:57 (after 28 seconds)

[Quote]

Сетевой торрент
[Profile] [PM]

Guest

Gender: Unknown

Post 23-May-2014 06:34 (after 6 hours)

[Quote]

Монстры компьютерные?
 
Display posts:    
Reply to topic

Current time is: 22-Aug 15:49

All times are UTC + 3



You cannot post new topics in this forum
You cannot reply to topics in this forum
You cannot edit your posts in this forum
You cannot delete your posts in this forum
You cannot vote in polls in this forum
You cannot attach files in this forum
You cannot download files in this forum