Запрещенная реальность / The Forbidden Dimensions / 2035: Forbidden Dimensions (Кристофер Джеймс Миллер) [2013 г., фантастика, триллер, BDRip-1080p] 2хЛО (den904, ХиХиДок) СТ (river11)

Reply to topic
 
Author Message

admin ®

Gender: Male

Longevity: 6 years 9 months

Posts: 4725

Location: Україна

Post 22-May-2014 00:33

[Quote]

Запрещенная реальность / The Forbidden Dimensions / 2035: Forbidden Dimensions
Год выпуска: 2013
Страна: США, Razorwire Pictures
Жанр: фантастика, триллер
Продолжительность: 01:26:16
Перевод: 2хЛО (den904, ХиХиДок) СТ (river11)
Режиссер: Кристофер Джеймс Миллер
В ролях:
Brittany O'Neil ... Kronos Scientist
Kyle Morris ... Jack Slade
Kalise Wallace ... Noose
Christopher James Miller ... Gristle / Tracker
Jamie Katonic ... Khadijah
Al Ridenour ... Doctor
Amy Daly ... Alien
Carl Crew ... Pastor John
Al Gomez ... Kronos Executive
Logan Horberg ... Bruno
Veronica Tarlitz ... Filth
Steven Briggs ... Duct Factory Creature
Sean Stearley ... Bill
Lisa Thayer ... Jack's Mother
Erin Blaisdell ... Pez
Описание: Джек Слэйд родился во время солнечного затмения в 1980 году. 18 лет спустя он узнает, что у него есть способность переместиться в будущее. Он проектирует себя в 2035 год, где общество было уничтожено фашистским полком психопатических врачей, которые управляют пустошами, создавая искаженных мутантов с сывороткой, синтезируемой от плоти мертвых иностранцев. Теперь Слэйд должен вернуться назад в 1998 год, чтобы разрушить устройство, известное как генератор длины волны, который открыл размерные ворота для этих иностранных существ. С помощью армии преступников женского пола и детектива, Слэйд повторно соединяется со звездным ребенком Хэдиджей, который держит под контролем остановку этих трагических событий.
Качество: BDRip-1080p
Формат: MKV
Видео: x264, 9369 Кбит/сек, 1920x1080, 23.976 к/с, crf=18
Аудио 1: Русский ЛО (den904)((AC3, 6 ch, 640 Кбит/с)
Аудио 2: Русский ЛО (ХиХиДок) (AC3, 2 ch, 192 Кбит/с)
Аудио 3: Английский (AC3, 2 ch, 192 Кбит/с)
Субтитры : Русские (river11)
Работа над релизом:




Трейлер

Дополнительно

Also Known As (AKA)
(original title) The Forbidden Dimensions
(new title) 2035: Forbidden Dimensions
================================================
Для Украины: рип и оригинальный ДВД дополнительно залиты в файлохранилище
Для удаления,добавления и извлечения дорожек в mkv используйте бесплатную портативную mkvmerge GUI 6.6.0
Для присоединения потом дорожек к avi воспользуйтесь VirtualDubMod

Отзывы

Не. Миллер узнал это от ЕДИНОГО ИНФОРМАЦИОННОГО ПОЛЯ, оттуда вся инфа!
starredbear сказал(а):
Откуда Миллер мог знать про майдан в 2013 году? От Ванги??? Или ему слил сценарий кто то из ЦРУ))))))))))))))))))))))))))))))))))0
--------------------------------------
Шикарный наркоманский трэш угар. Смотреть и ужасаться..))
Большая благодарность переводчику river11 за перевод этого фильма и русские субтитры.
Озвучка без мата, в отличие от алтернативной.
----------------------------------------------
Мне хватило описания сюжета. Чего только стоят фразы -
фашистским полком психопатических врачей
искаженных мутантов с сывороткой, синтезируемой от плоти мертвых иностранцев
С помощью армии преступников женского пола и детектива
Мда, не то кино уже
--------------------------------------

Рецензия

MediaInfo

Общее
Уникальный идентификатор : 175170650469981728906526754478381163888 (0x83C8A3DE5DCFCAAB988AAA713BA96570)
Полное имя : H:\The Forbidden Dimensions 2013.x264.BDRip.1080p.2xRus.kosmoaelita.mkv
Формат : Matroska
Версия формата : Version 4 / Version 2
Размер файла : 7,06 Гбайт
Продолжительность : 1 ч. 26 м.
Общий поток : 11,7 Мбит/сек
Название фильма : The Forbidden Dimensions 2013 / kosmoaelita
Дата кодирования : UTC 2014-05-21 22:02:38
Программа кодирования : mkvmerge v6.6.0 ('The Edge Of The In Between') built on Dec 7 2013 13:21:48
Библиотека кодирования : libebml v1.3.0 + libmatroska v1.4.1
Видео
Идентификатор : 1
Формат : AVC
Формат/Информация : Advanced Video Codec
Профиль формата : High@L4.1
Параметр CABAC формата : Да
Параметр ReFrames формата : 4 кадра
Идентификатор кодека : V_MPEG4/ISO/AVC
Продолжительность : 1 ч. 26 м.
Битрейт : 9369 Кбит/сек
Ширина : 1920 пикселей
Высота : 1080 пикселей
Соотношение сторон : 16:9
Режим частоты кадров : Постоянный
Частота кадров : 23,976 кадра/сек
Цветовое пространство : YUV
Субдискретизация насыщенности : 4:2:0
Битовая глубина : 8 бит
Тип развёртки : Прогрессивная
Бит/(Пиксели*Кадры) : 0.188
Размер потока : 5,51 Гбайт (78%)
Библиотека кодирования : x264 core 142 r2409 d6b4e63
Настройки программы : cabac=1 / ref=4 / deblock=1:0:0 / analyse=0x3:0x133 / me=umh / subme=8 / psy=1 / psy_rd=1.00:0.00 / mixed_ref=1 / me_range=16 / chroma_me=1 / trellis=1 / 8x8dct=1 / cqm=0 / deadzone=21,11 / fast_pskip=0 / chroma_qp_offset=-2 / threads=12 / lookahead_threads=2 / sliced_threads=0 / nr=0 / decimate=1 / interlaced=0 / bluray_compat=0 / constrained_intra=0 / bframes=3 / b_pyramid=2 / b_adapt=2 / b_bias=0 / direct=3 / weightb=1 / open_gop=0 / weightp=2 / keyint=250 / keyint_min=23 / scenecut=40 / intra_refresh=0 / rc_lookahead=50 / rc=2pass / mbtree=1 / bitrate=9369 / ratetol=1.0 / qcomp=0.60 / qpmin=0 / qpmax=69 / qpstep=4 / cplxblur=20.0 / qblur=0.5 / ip_ratio=1.40 / aq=1:1.00
Язык : English
Default : Да
Forced : Нет
Аудио #1
Идентификатор : 2
Формат : AC-3
Формат/Информация : Audio Coding 3
Расширение режима : CM (complete main)
Параметр Endianness формата : Big
Идентификатор кодека : A_AC3
Продолжительность : 1 ч. 26 м.
Вид битрейта : Постоянный
Битрейт : 640 Кбит/сек
Каналы : 6 каналов
Расположение каналов : Front: L C R, Side: L R, LFE
Частота : 48,0 КГц
Битовая глубина : 16 бит
Метод сжатия : С потерями
Размер потока : 395 Мбайт (5%)
Заголовок : Русский ЛО (den904)
Язык : Russian
Default : Да
Forced : Нет
Аудио #2
Идентификатор : 3
Формат : AC-3
Формат/Информация : Audio Coding 3
Расширение режима : CM (complete main)
Параметр Endianness формата : Big
Идентификатор кодека : A_AC3
Продолжительность : 1 ч. 26 м.
Вид битрейта : Постоянный
Битрейт : 192 Кбит/сек
Каналы : 2 канала
Расположение каналов : Front: L R
Частота : 44,1 КГц
Битовая глубина : 16 бит
Метод сжатия : С потерями
Размер потока : 118 Мбайт (2%)
Заголовок : Русский ЛО (ХиХиДок)
Язык : Russian
Default : Нет
Forced : Нет
Аудио #3
Идентификатор : 4
Формат : DTS
Формат/Информация : Digital Theater Systems
Режим : 16
Параметр Endianness формата : Big
Идентификатор кодека : A_DTS
Продолжительность : 1 ч. 26 м.
Вид битрейта : Постоянный
Битрейт : 1509 Кбит/сек
Каналы : 6 каналов
Расположение каналов : Front: L C R, Side: L R, LFE
Частота : 48,0 КГц
Битовая глубина : 24 бит
Метод сжатия : С потерями
Размер потока : 931 Мбайт (13%)
Заголовок : DTS 5.1
Язык : English
Default : Нет
Forced : Нет
Текст
Идентификатор : 5
Формат : UTF-8
Идентификатор кодека : S_TEXT/UTF8
Идентификатор кодека/Информация : UTF-8 Plain Text
Заголовок : Русский (river11)
Язык : Russian
Default : Нет
Forced : Нет
Меню
00:00:00.000 : en:00:00:00.000
00:07:59.938 : en:00:07:59.938
00:16:39.999 : en:00:16:39.999
00:23:36.999 : en:00:23:36.999
00:32:11.972 : en:00:32:11.972
00:40:05.987 : en:00:40:05.987
00:49:42.938 : en:00:49:42.938
00:58:01.895 : en:00:58:01.895
01:06:09.924 : en:01:06:09.924
01:11:55.978 : en:01:11:55.978
01:19:01.862 : en:01:19:01.862
01:23:23.916 : en:01:23:23.916

Скриншоты







cd Рип дополнительно залит на mail.ru cd2


Last edited by admin on 2014-05-22 02:52; edited 4 times in total
[Profile] [PM]
Display posts:    
Reply to topic

Current time is: 21-Jun 00:16

All times are UTC + 3



You cannot post new topics in this forum
You cannot reply to topics in this forum
You cannot edit your posts in this forum
You cannot delete your posts in this forum
You cannot vote in polls in this forum
You cannot attach files in this forum
You cannot download files in this forum