Город новой преступности / Новый город преступности New Crime City (Джонатан Уинфри) [1994 г., Фантастика, боевик, DVDRip] 2хАО (Дохалов, Визгунов)

Reply to topic
 
Author Message

admin ®

Gender: Male

Longevity: 7 years 7 months

Posts: 4811

Post 16-May-2014 09:28

[Quote]

Город новой преступности / Новый город преступности New Crime City
Год выпуска: 1994
Страна: Перу, США, Iguana Producciones
Жанр: Фантастика, боевик
Продолжительность: 01:26:18
Перевод 1-2: Авторский одноголосый (В.Дохалов, С.Визгунов)
Режиссер: Джонатан Уинфри
В ролях:
Rick Rossovich ... Anthony Ricks
Sherrie Rose ... Darla
Stacy Keach ... Wynorski
Rick Dean ... Ironhead
Denis Forest ... Wizard
Ric Stoneback ... Brother Oswald
Jonathan Winfrey ... Cop
Ramsay Ross ... Juice
Elvira De La Puente ... Mother
Cécica Bernasconi ... Sister Maria
Augusto Chocano ... Diablo
Maritza Picasso ... Chicana
Claudia Sacha ... Jessica
Lolita Ronalds ... Scarface
David Killerby ... Stacks
Описание: 2020 год. После землетрясения в Лос-Анджелесе в результате бунтов из-за нехватки воды и пищи город на грани гибели. Для спасения города нужно изолировать район, где бушует преступность. Эту зону назвали «Городом новой преступности». Главный герой, казнь которого инсценирована для общественности, получает опасное задание в этой преисподней. Он должен предотвратить применение изобретенного там биологического оружия. Если он не уничтожит этот новый тип смертоносного вируса, преступники, требующие открытия зоны, уничтожат все человечество.
Качество: DVDRip
Формат: MKV
Видео: x264, 2206 кбит/с, 640x480, 23.976 к/с
Аудио 1: Русский АО (В.Дохалов) (AC3, 2 ch, 192 Кбит/с)
Аудио 2: Русский АО (С.Визгунов) (AC3, 2 ch, 192 Кбит/с)
Аудио 3: Английский (MP3, 2 ch, 192 Кбит/с)
Работа над релизом:
Видеоряд взят с CG
За оцифрованную с VHS дорожку Дохалова благодарим - Ernick
Синхрон дорожки Дохалова - ale_x2008
Синхрон дорожки Визгунова - sasha20072007 (kosmoaelita)



Пример русской озвучки Визгунова

Дополнительно

рейтинг MPAA лицам до 17 лет обязательно присутствие взрослого
Also Known As (AKA)
(original title) New Crime City
Argentina Ciudad del nuevo crimen
Greece (video title) Nea taxi vias
Italy (video title) New Crime City - Los Angeles 2020
================================================
Для Украины: рип и оригинальный ДВД дополнительно залиты в файлохранилище
Для удаления,добавления и извлечения дорожек в mkv используйте бесплатную портативную mkvmerge GUI 6.6.0
Для присоединения потом дорожек к avi воспользуйтесь VirtualDubMod

MediaInfo

Общее
Уникальный идентификатор : 239759745436231085621466597618750985665 (0xB4600C1D204B9C658667B001866615C1)
Полное имя : N:\New Crime City 1994.XviD.DVDRip.2xRus.kosmoaelita.mkv
Формат : Matroska
Версия формата : Version 4 / Version 2
Размер файла : 1,71 Гбайт
Продолжительность : 1 ч. 26 м.
Общий поток : 2838 Кбит/сек
Название фильма : New Crime City / Город новой преступности / 1994 / kosmoaelita
Дата кодирования : UTC 2014-05-16 06:29:48
Программа кодирования : mkvmerge v6.6.0 ('The Edge Of The In Between') built on Dec 7 2013 13:21:48
Библиотека кодирования : libebml v1.3.0 + libmatroska v1.4.1
Attachment : Yes
Видео
Идентификатор : 1
Формат : MPEG-4 Visual
Профиль формата : Advanced Simple@L5
Параметр BVOP формата : Да
Параметр QPel формата : Нет
Параметр GMC формата : Без точки перехода
Параметр матрицы формата : Выборочная
Идентификатор кодека : V_MS/VFW/FOURCC / XVID
Идентификатор кодека/Подсказка : XviD
Продолжительность : 1 ч. 26 м.
Битрейт : 2206 Кбит/сек
Ширина : 640 пикселей
Высота : 480 пикселей
Соотношение сторон : 4:3
Режим частоты кадров : Постоянный
Частота кадров : 23,976 кадра/сек
Цветовое пространство : YUV
Субдискретизация насыщенности : 4:2:0
Битовая глубина : 8 бит
Тип развёртки : Прогрессивная
Метод сжатия : С потерями
Бит/(Пиксели*Кадры) : 0.300
Размер потока : 1,33 Гбайт (78%)
Библиотека кодирования : XviD 1.1.2 (UTC 2006-11-01)
Default : Да
Forced : Нет
Аудио #1
Идентификатор : 2
Формат : AC-3
Формат/Информация : Audio Coding 3
Расширение режима : CM (complete main)
Параметр Endianness формата : Big
Идентификатор кодека : A_AC3
Продолжительность : 1 ч. 26 м.
Вид битрейта : Постоянный
Битрейт : 192 Кбит/сек
Каналы : 2 канала
Расположение каналов : Front: L R
Частота : 48,0 КГц
Битовая глубина : 16 бит
Метод сжатия : С потерями
Размер потока : 119 Мбайт (7%)
Заголовок : Русский АО (В.Дохалов)
Язык : Russian
Default : Да
Forced : Нет
Аудио #2
Идентификатор : 3
Формат : AC-3
Формат/Информация : Audio Coding 3
Расширение режима : CM (complete main)
Параметр Endianness формата : Big
Идентификатор кодека : A_AC3
Продолжительность : 1 ч. 26 м.
Вид битрейта : Постоянный
Битрейт : 192 Кбит/сек
Каналы : 2 канала
Расположение каналов : Front: L R
Частота : 48,0 КГц
Битовая глубина : 16 бит
Метод сжатия : С потерями
Размер потока : 119 Мбайт (7%)
Заголовок : Русский АО (С.Визгунов)
Default : Нет
Forced : Нет
Аудио #3
Идентификатор : 4
Формат : MPEG Audio
Версия формата : Version 1
Профиль формата : Layer 3
Идентификатор кодека : A_MPEG/L3
Идентификатор кодека/Подсказка : MP3
Продолжительность : 1 ч. 26 м.
Вид битрейта : Постоянный
Битрейт : 192 Кбит/сек
Каналы : 2 канала
Частота : 48,0 КГц
Метод сжатия : С потерями
Размер потока : 119 Мбайт (7%)
Библиотека кодирования : LAME3.98
Язык : English
Default : Нет
Forced : Нет

Скриншоты









cd Рип дополнительно залит на mail.ru cd2
[Profile] [PM]
Display posts:    
Reply to topic

Current time is: 03-Apr 09:51

All times are UTC + 3



You cannot post new topics in this forum
You cannot reply to topics in this forum
You cannot edit your posts in this forum
You cannot delete your posts in this forum
You cannot vote in polls in this forum
You cannot attach files in this forum
You cannot download files in this forum