Орды / Les Hordes (e1-4x4) (Жан-Клод Миссьен) [1991 г., фантастика, триллер, антиутопия, DVDRip] ЛО (den904), СТ (popster)

Reply to topic
 
Author Message

admin ®

Gender: Male

Longevity: 7 years 9 months

Posts: 4799

Post 15-May-2014 21:09

[Quote]

Орды / Les Hordes
Год выпуска: 1991
Страна: Франция , Blue Dahlia Productions
Жанр: фантастика, триллер, антиутопия
Продолжительность: 4 х ~01:20:00
Перевод: ЛО den904 по субтитрам от (popster)
Режиссер: Жан-Клод Миссьен
В ролях:
François Dunoyer ... Georges Frank
Corinne Touzet ... Elaine Finder
Souad Amidou ... Sarah
Simon Eine ... Paul Madiran
Jean-Pierre Kalfon ... Salomon
Philippe Lemaire ... Matricule 8477, père d'Elaine
Féodor Atkine ... Yvan Arkady
Michel Peyrelon ... Le banquier Vogel
Philippe Laudenbach ... Vermeer, le premier ministre
Jean-Claude Bouillaud ... La Balance
Bernard Freyd ... Maximilien Sprungler
Jean-Pierre Malo ... Philippe Maston
Dominique Valera ... Karl Teufels
Françoise Brion ... Morgane
Anouk Ferjac ... La mère d'Elaine
Описание: Четырёхсерийный фильм про невесёлое будущее Европы, снятый с минимумом фантастических атрибутов. На фоне всяческих социальных недомоганий в крупные города периодически вторгается некая Орда, пытающаяся установить свои порядки и законы. Начали они с того, что собирали с водителей, стоящих в пробках, своеобразный налог на бедность, а тем, кто отказывается платить, разбивали машины. Никто не знает, откуда они приходят и кто их направляет, поэтому одного полицейского под прикрытием отправляют в никуда с заданием внедриться в Орды. Но постепенно Орды становятся политической партией, а их влияние с каждым днём растёт...
Качество: DVDRip
Формат: MKV
Видео: x264, ~1900кбит/с, 720x540, 25 к/с, crf= ~18~19
Аудио 1: Русский ЛО (den904) (AC3, 2 ch, 192 Кбит/с)
Аудио 2: Французский (AC3, 2 ch, 192 Кбит/с)
Субтитры : Русские (popster), английские
Работа над релизом:
Рипы с PAL 4хDVD5 с синемагеддона - kosmoaelita
Релиз: videodemons & kosmoaelita
Перевод с англ. субтитров: popster
Русский релиз увидел свет благодаря: punk and destroy, Voqkrre, $Shorox, ivanov, kosmoaelita, e-ball
Русская озвучка по заказу kosmoaelita - den904
Спонсоры русской озвучки - sdv7 +100, bvedargh +100, PonchoUsatiy +100, Фирсов +100, 4st +100, Starlay +1000, Ввикторрр +100р



Пример русских субтитров

Пример русской озвучки от den904

Дополнительно

MediaInfo

Общее
Уникальный идентификатор : 227616304337043801334948856656504132260 (0xAB3D4E3E1E3C42EBB9C2F81F7BC992A4)
Полное имя : Q:\Les Hordes e1-4x4 1991.x264.DVDRip\Les Hordes e1x4 1991.x264.DVDRip.Rus.kosmoaelita.mkv
Формат : Matroska
Версия формата : Version 4
Размер файла : 1,35 Гбайт
Продолжительность : 1 ч. 22 м.
Общий поток : 2352 Кбит/сек
Название фильма : Орды / Les Hordes e01 La Guerre des gueux / 1991 / rip from PAL DVD9 by kosmoaelita (2019-12-31), crf=18.86
Дата кодирования : UTC 2020-02-07 02:53:03
Программа кодирования : mkvmerge v6.6.0 ('The Edge Of The In Between') built on Dec 1 2013 17:55:00
Библиотека кодирования : libebml v1.3.0 + libmatroska v1.4.1
Attachments : 1.mkv.encoding.log / poster.jpg
Видео
Идентификатор : 1
Формат : AVC
Формат/Информация : Advanced Video Codec
Профиль формата : High@L4.1
Настройки формата : CABAC / 8 Ref Frames
Параметр CABAC формата : Да
Параметр RefFrames формата : 8 кадров
Идентификатор кодека : V_MPEG4/ISO/AVC
Продолжительность : 1 ч. 22 м.
Битрейт : 1932 Кбит/сек
Ширина : 720 пикселей
Высота : 540 пикселей
Соотношение сторон : 4:3
Режим частоты кадров : Постоянный
Частота кадров : 25,000 кадров/сек
Цветовое пространство : YUV
Субдискретизация насыщенности : 4:2:0
Битовая глубина : 8 бит
Тип развёртки : Прогрессивная
Бит/(Пиксели*Кадры) : 0.199
Размер потока : 1,08 Гбайт (80%)
Заголовок : http://kosmoaelita.com/viewtopic.php?t=1217
Библиотека кодирования : x264 core 130 r2273 b3065e6
Настройки программы : cabac=1 / ref=8 / deblock=1:-3:-3 / analyse=0x3:0x131 / me=umh / subme=11 / psy=1 / psy_rd=0.99:0.14 / mixed_ref=1 / me_range=24 / chroma_me=1 / trellis=2 / 8x8dct=1 / cqm=0 / deadzone=21,11 / fast_pskip=1 / chroma_qp_offset=-3 / threads=6 / lookahead_threads=1 / sliced_threads=0 / nr=0 / decimate=1 / interlaced=0 / bluray_compat=0 / constrained_intra=0 / bframes=8 / b_pyramid=2 / b_adapt=2 / b_bias=0 / direct=3 / weightb=1 / open_gop=0 / weightp=2 / keyint=210 / keyint_min=21 / scenecut=40 / intra_refresh=0 / rc_lookahead=80 / rc=2pass / mbtree=1 / bitrate=1932 / ratetol=1.0 / qcomp=0.65 / qpmin=0 / qpmax=69 / qpstep=4 / cplxblur=20.0 / qblur=0.5 / ip_ratio=1.25 / aq=1:0.90
Язык : French
Default : Да
Forced : Нет
Цветовой диапазон : Limited
Основные цвета : BT.601 PAL
Характеристики трансфера : BT.470 System B/G
Коэффициенты матрицы : BT.470 System B/G
Аудио #1
Идентификатор : 2
Формат : AC-3
Формат/Информация : Audio Coding 3
Коммерческое название : Dolby Digital
Идентификатор кодека : A_AC3
Продолжительность : 1 ч. 22 м.
Вид битрейта : Постоянный
Битрейт : 192 Кбит/сек
Каналы : 2 канала
ChannelLayout : L R
Частота : 48,0 КГц
Частота кадров : 31,250 кадров/сек (1536 SPF)
Метод сжатия : С потерями
Размер потока : 113 Мбайт (8%)
Заголовок : Русский ЛО (den904) - для kosmoaelita.com
Язык : Russian
ServiceKind/String : Complete Main
Default : Да
Forced : Нет
Аудио #2
Идентификатор : 3
Формат : MPEG Audio
Версия формата : Version 1
Профиль формата : Layer 2
Идентификатор кодека : A_MPEG/L2
Идентификатор кодека/Подсказка : MP2
Продолжительность : 1 ч. 22 м.
Вид битрейта : Постоянный
Битрейт : 224 Кбит/сек
Каналы : 2 канала
Частота : 48,0 КГц
Метод сжатия : С потерями
Размер потока : 132 Мбайт (10%)
Язык : French
Default : Нет
Forced : Нет
Текст #1
Идентификатор : 4
Формат : UTF-8
Идентификатор кодека : S_TEXT/UTF8
Идентификатор кодека/Информация : UTF-8 Plain Text
Заголовок : Русский (popster) .srt
Язык : Russian
Default : Нет
Forced : Нет
Текст #2
Идентификатор : 5
Формат : VobSub
Режим смешивания : zlib
Идентификатор кодека : S_VOBSUB
Идентификатор кодека/Информация : Picture based subtitle format used on DVDs
Заголовок : Русский (popster) .VobSub
Язык : Russian
Default : Да
Forced : Нет
Текст #3
Идентификатор : 6
Формат : UTF-8
Идентификатор кодека : S_TEXT/UTF8
Идентификатор кодека/Информация : UTF-8 Plain Text
Язык : English
Default : Нет
Forced : Нет
Меню
00:08:52.000 : en:00:08:52.000
00:17:44.520 : en:00:17:44.520
00:26:37.240 : en:00:26:37.240
00:35:29.880 : en:00:35:29.880
00:45:03.240 : en:00:45:03.240
00:52:33.400 : en:00:52:33.400
01:02:48.160 : en:01:02:48.160
01:08:56.920 : en:01:08:56.920
01:22:06.200 : en:01:22:06.200

Пример субтитров

1
00:00:02,439 --> 00:00:04,407
Золотой век в прошлом.
2
00:00:05,796 --> 00:00:08,554
Основы системы разрушены,
3
00:00:09,371 --> 00:00:13,071
что порождает все больше
несправедливости и неравенства.
4
00:00:14,399 --> 00:00:18,642
Многие горожане баррикадируются
в своих домах.
5
00:00:18,926 --> 00:00:20,279
В своих машинах.
6
00:00:20,730 --> 00:00:22,902
В своих защищенных кварталах.
7
00:00:23,286 --> 00:00:25,264
Тротуары пусты.
8
00:00:25,875 --> 00:00:28,748
Оставлены преступникам и бездомным.
-------------------------
887
01:18:44,068 --> 01:18:46,281
В следующий раз, наемник,
когда ты покинешь пост,
888
01:18:46,355 --> 01:18:47,569
чтобы позабавиться со шлюхой,
889
01:18:47,952 --> 01:18:50,358
я тебе отрежу не руку,
а кое-что другое.
890
01:18:54,952 --> 01:18:59,358
Перевод с англ. субтитров: popster
май, 2014 года

Скриншоты




























Скринлист

[Profile] [PM]

Guest

Gender: Unknown

Post 15-May-2014 21:38 (after 28 minutes)

[Quote]

Фильм, я бы сказал, туповат в плане мотиваций и логики. смайлик+ Но забавный.
 

kosmoaelita

Gender: Male

Longevity: 7 years 9 months

Posts: 1540

Post 07-Feb-2020 05:37 (after 5 years 8 months)

[Quote]

Добавлена русская озвучка от den904
Спасибо всем участникам проекта!
[Profile] [PM]

PonchoUsatiy

Gender: Unknown

Longevity: 8 months 21 day

Posts: 136

Post 07-Feb-2020 11:32 (after 5 hours)

[Quote]

скажите а почему на демонах размер 4,64 гб а здесь 5,39 гб?
[Profile] [PM]

kosmoaelita

Gender: Male

Longevity: 7 years 9 months

Posts: 1540

Post 07-Feb-2020 12:20 (after 48 minutes)

[Quote]

На демонах вероятно, брались готовые рипы из сети.
А здесь собственые рипы с паловских двд
[Profile] [PM]

CROM@G

Gender: Male

Longevity: 4 years 8 months

Posts: 3319

Location: Прибалтика

Post 08-Feb-2020 14:41 (after 1 day 2 hours)

[Quote]

Чертовски хороший мини-сериальчег Даже не ожидал .
[Profile] [PM]

pompilius

Gender: Male

Longevity: 2 years 7 months

Posts: 354

Post 22-May-2020 09:42 (after 3 months 13 days)

[Quote]

Встаньте на раздачу пожалуйста
[Profile] [PM]
Display posts:    
Reply to topic

Current time is: 03-Jun 14:03

All times are UTC + 3



You cannot post new topics in this forum
You cannot reply to topics in this forum
You cannot edit your posts in this forum
You cannot delete your posts in this forum
You cannot vote in polls in this forum
You cannot attach files in this forum
You cannot download files in this forum