Пришелец / The P.A.C.K. (Брайан Тодд / Bryan Todd) [1997 г., Фантастика, VHSRip] 2хАО (Котов, Кашкин)

Reply to topic
 
Author Message

admin ®

Gender: Male

Longevity: 7 years 9 months

Posts: 4799

Post 09-May-2014 17:00

[Quote]

Пришелец / The P.A.C.K.
Год выпуска: 1997
Страна: США, 4 Corners Entertainmenet
Жанр: Фантастика
Продолжительность: 01:28:41
Перевод 1: Авторский одноголосый Котов
Перевод 2: Авторский одноголосый Кашкин
Режиссер: Брайан Тодд / Bryan Todd
В ролях:
Sandahl Bergman ... Rachael
Ted Prior ... T-7043
Red West ... Sheriff Charlie Stone
Dave Scott ... Hopper
Earl Jarrett ... McCall
Kevon Kane ... Eric
John West ... Coroner
Jimi Petulla ... Bennett
Bryan Todd ... Adams
Jack Vogel ... Chambers
Mark Krasnoff ... Chang
G. Blake Savell ... Creature
Douglas Harter ... Bullet Head (as Doug Harter)
Tom McCall ... Bomber
Trudy Eicher King ... Bertha
Описание: Эксперт по НЛО, местный шериф, и агент ФБР вынуждены объединиться с инопланетным воином, чтобы выследить и уничтожить смертоносного внеземного киборга, убивающего людей в отдаленном лесу штата Алабама.
Качество: HSRip
Формат: MKV
Видео: x264, 1278 кбит/с, 512x384, 29.97 к/с
Аудио 1: Русский (AC3, 2 ch, 192 Кбит/с)
Аудио 2: Русский (AC3, 2 ch, 192 Кбит/с)
Аудио 3: Английский (AC3, 2 ch, 256 Кбит/с)
Работа над релизом:
Рип найден в сети.
Синхрон русских дорожек - sasha20072007 (kosmoaelita)

[kp][/kp]

Пример озвучки Кашкина

Дополнительно

================================================
Для Украины: рип дополнительно залит в файлохранилище
Рип дополнительно залит на mail.ru
Для удаления,добавления и извлечения дорожек в mkv используйте бесплатную портативную mkvmerge GUI 6.6.0
Для присоединения потом дорожек к avi воспользуйтесь VirtualDubMod

Отзывы

Шикарный фильм ! Супер фантастика с диалогами экстра класса ! Сэндал Бергман, Тед Прайор, Марк Краснофф ... короче все старые знакомые.
------------------------
Кстати в фильме засветился и сам режиссер Брайан Тодд. Он снимался в роли Стива Адамса, одного из команды (это такой высокий мужик и бородкой ). Слов правда у него мало, он постоянно ходил и молчал. А актёр, который играл пришельца, Брайан Доннеллан тоже засветился в роли какого то полицейского чтоли... (Если вы нашли его фото в фильме, дайте знать )
---------------------------
Спасибо за раздачу, у меня дома кассета лежит 15-тилетней давности с переводом Кашкина кстати
-----------------------------

MediaInfo

Общее
Уникальный идентификатор : 222144153681697779289443415744585231355 (0xA71F68629B3CAFE3B973C9B261956BFB)
Полное имя : N:\The P.A.C.K. 1997.XviD.VHSRip.2xRus.kosmoaelita.mkv
Формат : Matroska
Версия формата : Version 4 / Version 2
Размер файла : 1,11 Гбайт
Продолжительность : 1 ч. 28 м.
Общий поток : 1792 Кбит/сек
Название фильма : Пришелец / The P.A.C.K. (1997) / VHSRip / kosmoaelita
Дата кодирования : UTC 2014-05-09 13:34:32
Программа кодирования : mkvmerge v6.6.0 ('The Edge Of The In Between') built on Dec 7 2013 13:21:48
Библиотека кодирования : libebml v1.3.0 + libmatroska v1.4.1
Attachment : Yes
Видео
Идентификатор : 1
Формат : MPEG-4 Visual
Профиль формата : Advanced Simple@L5
Параметр BVOP формата : Да
Параметр QPel формата : Нет
Параметр GMC формата : Без точки перехода
Параметр матрицы формата : Выборочная
Идентификатор кодека : V_MS/VFW/FOURCC / XVID
Идентификатор кодека/Подсказка : XviD
Продолжительность : 1 ч. 28 м.
Битрейт : 1116 Кбит/сек
Ширина : 512 пикселей
Высота : 384 пикселя
Соотношение сторон : 4:3
Режим частоты кадров : Постоянный
Частота кадров : 29,970 кадров/сек
Цветовое пространство : YUV
Субдискретизация насыщенности : 4:2:0
Битовая глубина : 8 бит
Тип развёртки : Прогрессивная
Метод сжатия : С потерями
Бит/(Пиксели*Кадры) : 0.189
Размер потока : 708 Мбайт (62%)
Заголовок : kosmoaelita
Библиотека кодирования : XviD 1.2.1 (UTC 2008-12-04)
Default : Да
Forced : Нет
Аудио #1
Идентификатор : 2
Формат : AC-3
Формат/Информация : Audio Coding 3
Расширение режима : CM (complete main)
Параметр Endianness формата : Big
Идентификатор кодека : A_AC3
Продолжительность : 1 ч. 28 м.
Вид битрейта : Постоянный
Битрейт : 192 Кбит/сек
Каналы : 2 канала
Расположение каналов : Front: L R
Частота : 48,0 КГц
Битовая глубина : 16 бит
Метод сжатия : С потерями
Размер потока : 122 Мбайт (11%)
Заголовок : Русский АО (В.Котов)
Язык : Russian
Default : Да
Forced : Нет
Аудио #2
Идентификатор : 3
Формат : AC-3
Формат/Информация : Audio Coding 3
Расширение режима : CM (complete main)
Параметр Endianness формата : Big
Идентификатор кодека : A_AC3
Продолжительность : 1 ч. 28 м.
Вид битрейта : Постоянный
Битрейт : 192 Кбит/сек
Каналы : 1 канал
Расположение каналов : Front: C
Частота : 48,0 КГц
Битовая глубина : 16 бит
Метод сжатия : С потерями
Размер потока : 122 Мбайт (11%)
Заголовок : Русский АО (Кашкин)
Язык : Russian
Default : Нет
Forced : Нет
Аудио #3
Идентификатор : 4
Формат : AC-3
Формат/Информация : Audio Coding 3
Расширение режима : CM (complete main)
Параметр Endianness формата : Big
Идентификатор кодека : A_AC3
Продолжительность : 1 ч. 28 м.
Вид битрейта : Постоянный
Битрейт : 256 Кбит/сек
Каналы : 2 канала
Расположение каналов : Front: L R
Частота : 48,0 КГц
Битовая глубина : 16 бит
Метод сжатия : С потерями
Размер потока : 162 Мбайт (14%)
Язык : English
Default : Нет
Forced : Нет

Скриншоты












cd Рип дополнительно залит на mail.ru cd2
[Profile] [PM]
Display posts:    
Reply to topic

Current time is: 05-Jun 01:52

All times are UTC + 3



You cannot post new topics in this forum
You cannot reply to topics in this forum
You cannot edit your posts in this forum
You cannot delete your posts in this forum
You cannot vote in polls in this forum
You cannot attach files in this forum
You cannot download files in this forum