Фатальная ошибка / Terminal Error (Джон Марловски / John Murlowski) [2002 г., фантастика, триллер, DVDRip] ПМ (ТВ3), ПД (НТВ+)

Reply to topic
 
Author Message

admin ®

Gender: Male

Longevity: 7 years 5 months

Posts: 4813

Post 07-May-2014 23:40

[Quote]

Фатальная ошибка / Terminal Error
Год выпуска: 2002
Страна: США, PorchLight Entertainment
Жанр: фантастика, триллер
Продолжительность: 01:34:45
Перевод 1: Профессиональный (многоголосый, закадровый) Селена Интернешнл для ТВ3
Перевод 2: Профессиональный (двухоголосый, закадровый) НТВ+ (Е.Борзунова Д.Некрасов)
Режиссер: Джон Марловски / John Murlowski
В ролях: Michael Nouri ... Brad
Marina Sirtis ... Alex
Matthew Ewald ... Dylan
David Wells ... Russ
Timothy Busfield ... Elliot
Audrey Wasilewski ... Kathy
Robert Covarrubias ... Kenny
Rick Cramer ... Detective
David Storrs ... Recruit
Kim Delgado ... Franklin
Jane Yamamoto ... Miriam
Robert Leon Casey ... Pilot (as Robert Casey)
Scott Clifton ... Jock
Описание: Ряд несвязанных между собой катастроф происходит в течение одного дня — атомная электростанция взрывается и, наполненный людьми лифт, погружается в землю. Разрушения повсюду и только два человека могут это остановить — Брэд — владелец AutoCom — крупнейшей в мире компьютерной компании и его сын, разбирающийся в компьютерах, Дилан. Эллиот, бывший партнер благополучного компьютерного магната жаждет мести, он создает высоко интеллектуальный компьютерный вирус. В тайне поддерживающего Дилана и используя его как связующее звено между вирусом и AutoCom, Эллиоту удается внедрить опасный вирус в компьютерную систему AutoCom. Теперь дело за Брэдом, Диланом и Алекс. Им надо найти способ, чтобы остановить этого виртуального, но очень реального врага, пока вирус не стал фатальным.
Качество: DVDRip
Формат: MKV
Видео: x264, 1750 кбит/с, 640x480, 23.976 к/с
Аудио 1: Русский ПМ (ТВ3) (AC3, 2 ch, 192 Кбит/с)
Аудио 2: Русский ПД (НТВ+) (AC3, 2 ch, 192 Кбит/с)
Аудио 3: Английский (AC3, 2 ch, 192 Кбит/с)
Работа над релизом:
Рип найден на CG.
Русские дорожки найдены на ехюа
Синхрон и преобр. русских дорожек - sasha20072007 (kosmoaelita)



Трейлер

Дополнительно

рейтинг MPAA детям до 13 лет просмотр не желателен
Also Known As (AKA)
(original title) Terminal Error
Peace Virus
Germany Peace Virus - Die Bedrohung
Hungary Pokoli játszma
World-wide (Spanish title) Terror informático
================================================
Для Украины: рип дополнительно залит в файлохранилище
Рип дополнительно залит на mail.ru
Для удаления,добавления и извлечения дорожек в mkv используйте бесплатную портативную mkvmerge GUI 6.6.0
Для присоединения потом дорожек к avi воспользуйтесь VirtualDubMod

Отзывы

Им бы добавить малость комичности и получилась бы хорошая пародия. Что-то совсем не впечатлило. Тупая страшилка. Вирус, откручивающий задвижки на трубе - это вообще жесть. Он еще и паракинезом владел, походу. Все косяки перечислять лень.
------------------------------
Интересный фантастический триллер... Хотя через десять лет после его создания он как- то
не особенно ассоциируется а фантастикой...
В настоящее время все больше усиливаются опасения, что компьютерные технологии из помощника человечества, могут превратиться в его убийцу. И если раньше подобные мысли считались досужими домыслами фантастов, то сейчас они могут стать угрожающей
реальностью. Компьютерный вирус, творение человека, способен убить своего создателя...
За компьютерными программами стоят люди, поэтому ошибаются (случайно или по злому умыслу) не программы, а люди, и все зависит от того,что ими движет - добрые намерения или слепая ненависть и жажда отмщения ....
Для полусумашедшего хакера Эллиота человеческие жертвы не в счет, в его понимании технологии - это смерть и орудие мести.
Напряженнейшее противостояние компьютерных гениев...
Фильм смотрится с большим интересом.
-------------------------------------------
Брэдa — владелецa крупнейшей в мире компьютерной компании и его сынa, который разбирается в компьютерах, Диланa играют талантливые и обаятельные актеры..
Красавец актeр Майкл Нури, исполнитель многочисленных ролей в кино и телевидении, и красивый молодой актер Мэттью Эвальд, известный по роли Джимми в фильме "План 9"(2011)
В роли Алех снялась красавица звезда сериалов Марина Сиртис - американская актриса греческого происхождения, особо известна своей ролью Дианы Трой в телесериале "Звёздный путь: Следующее поколение".
Фильм "Фатальная ошибка" - 2002 года, но лично для меня - интригующая новинка, как по названию , так и по сюжету...
... Эллиоту удается внедрить опасный вирус в компьютерную систему AutoCom. Теперь дело за Брэдом, Диланом и Алекс. Им надо найти способ, чтобы остановить этого виртуального, но очень реального врага...И не сделать.. фатальной ошибки?
-------------------------------------------------------
Да....как ни крути, а будущее наше - за компьютерными технологиями..
которые и погубить нас могут...и спасти...И страсти в компьютерной реальности, подчас,
кипят нешуточные...Вот и героям этого фильма придется бороться с вполне реальным,
хотя и виртуальным врагом...Очень надеюсь, что у них все получится и они спасут землю
от надвигающейся катастрофы...В любом случае - с удовольствием посмотрю эту фантастическую....
но вполне реальную историю..

MediaInfo

Общее
Уникальный идентификатор : 170537893072977476840044988419280942649 (0x804C674B43B83E93838818E1C0DF3639)
Полное имя : N:\Terminal Error 2002.x264.DVDRip.2xRus.kosmoaelita.mkv
Формат : Matroska
Версия формата : Version 4 / Version 2
Размер файла : 1,54 Гбайт
Продолжительность : 1 ч. 34 м.
Общий поток : 2328 Кбит/сек
Название фильма : Terminal Error (2002) / kosmoaelita
Дата кодирования : UTC 2014-05-07 22:08:47
Программа кодирования : mkvmerge v6.6.0 ('The Edge Of The In Between') built on Dec 7 2013 13:21:48
Библиотека кодирования : libebml v1.3.0 + libmatroska v1.4.1
Видео
Идентификатор : 1
Формат : AVC
Формат/Информация : Advanced Video Codec
Профиль формата : High@L3.0
Параметр CABAC формата : Да
Параметр ReFrames формата : 5 кадров
Идентификатор кодека : V_MPEG4/ISO/AVC
Продолжительность : 1 ч. 34 м.
Битрейт : 1750 Кбит/сек
Ширина : 640 пикселей
Высота : 480 пикселей
Соотношение сторон : 4:3
Режим частоты кадров : Постоянный
Частота кадров : 23,976 кадра/сек
Цветовое пространство : YUV
Субдискретизация насыщенности : 4:2:0
Битовая глубина : 8 бит
Тип развёртки : Прогрессивная
Бит/(Пиксели*Кадры) : 0.238
Размер потока : 1,13 Гбайт (73%)
Заголовок : Релиз www.kosmoaelita.com
Библиотека кодирования : x264 core 138 r2358 9e941d1
Настройки программы : cabac=1 / ref=5 / deblock=1:0:0 / analyse=0x3:0x113 / me=umh / subme=9 / psy=1 / psy_rd=1.00:0.00 / mixed_ref=1 / me_range=16 / chroma_me=1 / trellis=1 / 8x8dct=1 / cqm=0 / deadzone=21,11 / fast_pskip=1 / chroma_qp_offset=-2 / threads=3 / lookahead_threads=1 / sliced_threads=0 / nr=0 / decimate=1 / interlaced=0 / bluray_compat=0 / constrained_intra=0 / bframes=2 / b_pyramid=0 / b_adapt=1 / b_bias=0 / direct=1 / weightb=1 / open_gop=0 / weightp=2 / keyint=240 / keyint_min=23 / scenecut=40 / intra_refresh=0 / rc_lookahead=40 / rc=2pass / mbtree=1 / bitrate=1750 / ratetol=1.0 / qcomp=0.60 / qpmin=0 / qpmax=69 / qpstep=4 / cplxblur=20.0 / qblur=0.5 / ip_ratio=1.40 / aq=1:1.00
Язык : English
Default : Да
Forced : Нет
Аудио #1
Идентификатор : 2
Формат : AC-3
Формат/Информация : Audio Coding 3
Расширение режима : CM (complete main)
Параметр Endianness формата : Big
Идентификатор кодека : A_AC3
Продолжительность : 1 ч. 34 м.
Вид битрейта : Постоянный
Битрейт : 192 Кбит/сек
Каналы : 2 канала
Расположение каналов : Front: L R
Частота : 48,0 КГц
Битовая глубина : 16 бит
Метод сжатия : С потерями
Размер потока : 130 Мбайт (8%)
Заголовок : Русский ПМ (Селена Интернешнл для ТВ3)
Язык : Russian
Default : Да
Forced : Нет
Аудио #2
Идентификатор : 3
Формат : AC-3
Формат/Информация : Audio Coding 3
Расширение режима : CM (complete main)
Параметр Endianness формата : Big
Идентификатор кодека : A_AC3
Продолжительность : 1 ч. 34 м.
Вид битрейта : Постоянный
Битрейт : 192 Кбит/сек
Каналы : 2 канала
Расположение каналов : Front: L R
Частота : 48,0 КГц
Битовая глубина : 16 бит
Метод сжатия : С потерями
Размер потока : 130 Мбайт (8%)
Заголовок : Русский ПД (НТВ+) Е.Борзунова Д.Некрасов
Язык : Russian
Default : Нет
Forced : Нет
Аудио #3
Идентификатор : 4
Формат : AC-3
Формат/Информация : Audio Coding 3
Расширение режима : CM (complete main)
Параметр Endianness формата : Big
Идентификатор кодека : A_AC3
Продолжительность : 1 ч. 34 м.
Вид битрейта : Постоянный
Битрейт : 192 Кбит/сек
Каналы : 2 канала
Расположение каналов : Front: L R
Частота : 48,0 КГц
Битовая глубина : 16 бит
Метод сжатия : С потерями
Размер потока : 130 Мбайт (8%)
Язык : English
Default : Нет
Forced : Нет

Скриншоты












cd Рип дополнительно залит на mail.ru cd2
[Profile] [PM]
Display posts:    
Reply to topic

Current time is: 18-Feb 07:04

All times are UTC + 3



You cannot post new topics in this forum
You cannot reply to topics in this forum
You cannot edit your posts in this forum
You cannot delete your posts in this forum
You cannot vote in polls in this forum
You cannot attach files in this forum
You cannot download files in this forum