Вторжение на Землю / Invasion Earth: The Aliens Are Here / Invasion Earth / The Aliens Are Here (Роберт Скотак) [1988 г., Фантастика, комедия, сатира, VHSRip] АО (с VHS), СТ(МОНСТР КИНО)

Reply to topic
DL-List and Torrent activity
Size:  1.09 GB   |    Registered:  5 years 9 months   |    Completed:  9 times

Seeder not seen: 4 months 28 days

 
   
 
 
 
Author Message

admin ®

Gender: Male

Longevity: 7 years

Posts: 4725

Location: Україна

Post 10-Sep-2012 04:12

[Quote]

Вторжение на Землю / Invasion Earth: The Aliens Are Here
Год выпуска: 1988
Страна: США, New World Pictures
Жанр: Фантастика, комедия, сатира
Продолжительность: 01:22:26
Перевод 1: АО (с VHS)
Перевод 2: Субтитры
Режиссер: Роберт Скотак
В ролях: Дженис Фабиан, Кристиан Ли, Ларри Багби, Дэна Янг, Дэвид Данхэм, Чарльз Выкофф, Синтия Дэйл Скотт
Описание: Фантастический низкобюджетный фильм-сатира о вторжении враждебных, безжалостных инопланетян на Землю. Коварные насекомоподобные инопланетяне вторгаются на нашу планету с целью изменить сознание землян и покорить их. Для этого они проникают в кинотеатр небольшого городка, где всю ночь демонстрируются фрагменты из самых нелепых и примитивных фантастических фильмов пятидесятых годов. Пришельцы постепенно овладевают сознанием зрителей, превращая их в покорных зомбиобразных существ. И только парочка подростков понимает, что происходит. Когда власти отказываются поверить в их рассказы, они решают самостоятельно отразить нападение пришельце.Фильм-пародия на современное американское общество, потребляющее примитивнейшее зрелище под хруст попкорна. Стеб, сатира, издевательство-составляющие компоненты этой оригинальной картины.
Качество: VHSRip
Формат: MKV
Видео: x264, 1512 Кбит/с, 704×536 CRF=20.5
Аудио 1: Русский АО (с VHS) (AC3, 2 ch, 192 Кбит/с)
Аудио 2: Английский (AC3, 2 ch, 160 Кбит/с)
Субтитры : Русские (МОНСТР КИНО)
Работа над релизом:
Рип с ДВД с синемагеддона (трансфер с видеокассеты) и монтаж - sasha20072007, качество рипа CRF=20.5
Лог кодирования и постеры - внутри контейнера.
Русские субтитры-перевод - МОНСТР КИНО
Русская звуковая дорожка выкуплена специально для kosmoaelita.com



Русская озвучка и субтитры

Дополнительно

Другие названия:
Invasión de la tierra - Los aliens están aquí Spain
Inwazja na ziemie: nadchodza kosmici Poland
===========================================
Сравнение с рипом в сети - нет франко-русского хардсаба и чуть полнее картинка
Для Украины: фильм дополнительно залит в файлохранилище
Для удаления,добавления и извлечения дорожек в mkv используйте бесплатную портативную mkvmerge GUI 6.2.0
Для присоединения потом дорожек к avi воспользуйтесь VirtualDubMod

Рецензия

Коварные насекомоподобные инопланетяне вторгаются на нашу планету с целью изменить сознание землян и покорить их. Для этого они проникают в кинотеатр небольшого городка, где всю ночь демонстрируются фрагменты из самых нелепых и примитивных фантастических фильмов пятидесятых годов. Пришельцы постепенно овладевают сознанием зрителей, превращая их в покорных зомбиобразных существ. И только парочка подростков понимает, что происходит. Когда власти отказываются поверить в их рассказы, они решают самостоятельно отразить нападение пришельцев…
Картина есть предлог собрать вместе запоминающиеся фрагменты из таких классических научно-фантастических черно-белых фильмов, как «Сгусток» (1958), «Чудовище со дна океана» (1955), «Вторжение похитителей тел» (1956), «Гигантский коготь» (1956) и многих других. В них демонстрируются пришельцы, мутанты, чудовища, динозавры и монстры. Местные тинейджеры именно из этих фильмов узнают, как можно сражаться с иноземными созданиями. Превосходный фильм-пародия на современное американское общество, потребляющее примитивнейшее зрелище под хруст попкорна. Стеб, сатира, издевательство-составляющие компоненты этой оригинальной картины. Оператором был Остин Маккини («Атомный монстр», 1961; «Маньяки на свободе», 1964; «Колдун Марса», 1965; «Галерея ужасов», 1966; «Остров живых мертвецов», 1968; «Невероятное вторжение», 1968; «Дом зла», 1968; «Кровь железной девы», 1970; «Лиза, Лиза», 1974; «Галактика ужаса», 1981; «Терминатор», 1984). Оценка 2 балла.

MediaInfo

Общее
Уникальный идентификатор : 181588199867459583463524181850379446021 (0x889C9D7B992ED64B9F60AFDC7CCEE705)
Полное имя : E:\Vtorzhenie.na.Zemlju.1988.x264.VHSRip.sasha20072007.mkv
Формат : Matroska
Версия формата : Version 2
Размер файла : 1003 Мбайт
Продолжительность : 1 ч. 22 м.
Общий поток : 1706 Кбит/сек
Название фильма : Вторжение на Землю / Invasion Earth: The Aliens Are Here / 1988 / rip by sasha20072007
Дата кодирования : UTC 2012-05-16 13:39:16
Программа кодирования : mkvmerge v5.5.0 ('Healer') built on Apr 24 2012 23:47:03
Библиотека кодирования : libebml v1.2.3 + libmatroska v1.3.0
Attachment : Yes / Yes
Видео
Идентификатор : 1
Формат : AVC
Формат/Информация : Advanced Video Codec
Профиль формата : High@L4.1
Параметр CABAC формата : Да
Параметр ReFrames формата : 10 кадров
Идентификатор кодека : V_MPEG4/ISO/AVC
Продолжительность : 1 ч. 22 м.
Битрейт : 1512 Кбит/сек
Ширина : 704 пикселя
Высота : 536 пикселей
Соотношение сторон : 4:3
Частота кадров : 23,976 кадра/сек
Цветовое пространство : YUV
Субдискретизация насыщенности : 4:2:0
Битовая глубина : 8 бит
Тип развёртки : Прогрессивная
Бит/(Пиксели*Кадры) : 0.167
Размер потока : 889 Мбайт (89%)
Библиотека кодирования : x264 core 120 r2164 da19765
Настройки программы : cabac=1 / ref=10 / deblock=1:-3:-3 / analyse=0x3:0x133 / me=umh / subme=10 / psy=1 / psy_rd=1.00:0.25 / mixed_ref=1 / me_range=24 / chroma_me=1 / trellis=2 / 8x8dct=1 / cqm=0 / deadzone=6,6 / fast_pskip=1 / chroma_qp_offset=-4 / threads=12 / sliced_threads=0 / nr=0 / decimate=0 / interlaced=0 / bluray_compat=0 / constrained_intra=0 / bframes=10 / b_pyramid=2 / b_adapt=2 / b_bias=0 / direct=1 / weightb=1 / open_gop=0 / weightp=2 / keyint=220 / keyint_min=22 / scenecut=40 / intra_refresh=0 / rc_lookahead=60 / rc=crf / mbtree=1 / crf=20.5 / qcomp=0.80 / qpmin=0 / qpmax=69 / qpstep=4 / vbv_maxrate=17500 / vbv_bufsize=14000 / crf_max=0.0 / nal_hrd=none / ip_ratio=1.10 / aq=1:0.50
Default : Да
Forced : Нет
Аудио
Идентификатор : 2
Формат : AC-3
Формат/Информация : Audio Coding 3
Расширение режима : CM (complete main)
Параметр Endianness формата : Big
Идентификатор кодека : A_AC3
Продолжительность : 1 ч. 22 м.
Вид битрейта : Постоянный
Битрейт : 160 Кбит/сек
Каналы : 2 канала
Расположение каналов : Front: L R
Частота : 48,0 КГц
Битовая глубина : 16 бит
Метод сжатия : С потерями
Размер потока : 94,0 Мбайт (9%)
Язык : English
Default : Да
Forced : Нет
Текст #1
Идентификатор : 3
Формат : VobSub
Режим смешивания : zlib
Идентификатор кодека : S_VOBSUB
Идентификатор кодека/Информация : The same subtitle format used on DVDs
Заголовок : Русский (МОНСТР КИНО) VobSub
Язык : Russian
Default : Да
Forced : Да
Текст #2
Идентификатор : 4
Формат : UTF-8
Идентификатор кодека : S_TEXT/UTF8
Идентификатор кодека/Информация : UTF-8 Plain Text
Заголовок : Русский (МОНСТР КИНО) srt
Язык : Russian
Default : Нет
Forced : Нет
Меню
00:00:00.000 : :Chapter 01
00:05:00.835 : :Chapter 02
00:10:01.103 : :Chapter 03
00:15:01.438 : :Chapter 04
00:20:01.706 : :Chapter 05
00:25:02.041 : :Chapter 06
00:30:02.309 : :Chapter 07
00:35:02.644 : :Chapter 08
00:40:02.912 : :Chapter 09
00:45:03.247 : :Chapter 10
00:50:03.515 : :Chapter 11
00:55:03.850 : :Chapter 12
01:00:04.118 : :Chapter 13
01:05:04.453 : :Chapter 14
01:10:04.721 : :Chapter 15
01:15:05.056 : :Chapter 16
01:20:05.324 : :Chapter 17

Скриншоты



cd Рип дополнительно залит на ОБЛАКО cd2
Invasion Earth The Aliens Are Here 1988.x264.VHSRip.Rus.kosmoaelita.mkv.torrent
Torrent: Registered [ 2013-12-09 18:47 ]

Download .torrent

Download

44 KB

Status: checked
Completed: 9 times
Size: 1.09 GB
 


Last edited by admin on 2015-08-13 09:45; edited 3 times in total
[Profile] [PM]

Guest

Gender: Unknown

Post 09-Dec-2013 18:47 (after 1 year 2 months)

[Quote]

Добавлена русская дорожка с VHS.
Длинные муз. паузы заменены более качественными с англ. дорожки
 
Display posts:    
Reply to topic

Current time is: 18-Sep 08:05

All times are UTC + 3



You cannot post new topics in this forum
You cannot reply to topics in this forum
You cannot edit your posts in this forum
You cannot delete your posts in this forum
You cannot vote in polls in this forum
You cannot attach files in this forum
You can download files in this forum