Удаленный контроль / Чудо техники / Обратная перемотка / Дистанционное управление / Remote Control (Джефф Либерман / Jeff Lieberman) [1988 г., фантастика, комедия, BDRip-720p] ПМ (ИНИС), ПД (РЕН-ТВ), АО (VHS)

Reply to topic
DL-List and Torrent activity
Size:  7.07 GB   |    Registered:  6 years 7 months   |    Completed:  3 times

Seeder not seen: 3 years 11 months

 
   
 
 
 
Author Message

admin ®

Gender: Male

Longevity: 8 years 3 months

Posts: 4796

Post 25-Apr-2014 09:48

[Quote]

Удаленный контроль / Чудо техники / Обратная перемотка / Дистанционное управление / Remote Control
Год выпуска: 1988
Страна: США, Vista Organization
Жанр: ужасы, фантастика, комедия
Продолжительность: 01:24:59
Перевод 1: ПМ (ИНИС)
Перевод 2: ПД (РЕН-ТВ)
Перевод 3: АО (VHS)
Режиссер: Джефф Либерман / Jeff Lieberman
В ролях:
Kevin Dillon ... Cosmo
Deborah Goodrich ... Belinda Watson
Christopher Wynne ... Georgie
Frank Beddor ... Victor
Jennifer Tilly ... Allegra James
Kaaren Lee ... Patricia
Bert Remsen ... Bill Denver
Jamie McEnnan ... Matthew (as Jaime McEnnan)
Jerold Pearson ... Alan Bard
Jennifer Buchanan ... Julia Bard
Deborah Downey ... Eva
Will Nye ... Milo
Marilyn Adams ... Neighbor #1
Dick Warlock ... Mr. James (as Richard Warlock)
Ann Walker ... Mrs. James
Описание: В видеопрокате имелась кассета, которая убивала зрителей. Но не все зрители — жертвы, и не все — трусы. Нашлись отчаянные молодые ребята, которые решили выяснить, что же это за злодейская кассета...
Качество: BDRip-720p
Формат: MKV
Видео: x264, 10,5 Мбит/сек, 1280x692, 23.976 к/с
Аудио 1: Русский ПМ (ИНИС)(AC3, 2 ch, 192 Кбит/с)
Аудио 2: Русский ПД (РЕН-ТВ) (AC3, 2 ch, 192 Кбит/с)
Аудио 3: Русский АО (VHS) (AC3, 2 ch, 192 Кбит/с)
Аудио 4: Английский (AC3, 2 ch, 192 Кбит/с)
Аудио 5: Английский Comment (AC3, 2 ch, 192 Кбит/с)
Работа над релизом:
Видеоряд найден в юзенете
Рип с кассеты случайно найден на сервере. Синхрон дорожки - sasha2072007 (kosmoaelita)



Трейлер

Дополнительно

слоган «The ultimate power trip»
бюджет $3 000 000
рейтинг MPAA лицам до 17 лет обязательно присутствие взрослого
Also Known As (AKA)
(original title) Remote Control
Brazil Controle Remoto
Finland Kauko-ohjattu kuolema
France (TV title) Meurtres en VHS
Italy Videokiller
================================================
Для Украины: рип дополнительно залит в файлохранилище
Рип дополнительно залит на mail.ru
Для удаления,добавления и извлечения дорожек в mkv используйте бесплатную портативную mkvmerge GUI 6.6.0
Для присоединения потом дорожек к avi воспользуйтесь VirtualDubMod

Отзывы

Фильм действительно укладывается жанром три в одном.
Стал классикой. Любители фэнтези и хоррора остануться
довольны. И в первую очередь - комедией над остальными!
Джефф Либерман - Сценарист, Режиссер, Продюсер. Родился в Бруклине. Работает в жанрах: Комедия, Ужасы, Фэнтези, Семейный, Приключения. Играл самого себя в двух фильмах. Снял 16 фильмов, последний - сериал "Люблю тебя до смерти" с 2006 по 2007.
Родился в 1947 году.
---------------------------------------
В лучшем стиле 80-х,Благадарю!
-------------------------------------
За рубчик ходили в видео-салон
----------------------------------
видел в авторской озвучке, средне так
------------------------------------------
фильм переводили Алексеев и Кузнецов

MediaInfo

Общее
Уникальный идентификатор : 182521203978447511302885204826857681099 (0x89504E2314585302B9920815A2A830CB)
Полное имя : N:\Remote Control 1988.x264.BDRip.720p.3xRus.kosmoaelita.mkv
Формат : Matroska
Версия формата : Version 4 / Version 2
Размер файла : 7,07 Гбайт
Продолжительность : 1 ч. 28 м.
Общий поток : 11,5 Мбит/сек
Название фильма : Remote Control 1988.x264.BDRip.720p.2xRus. kosmoaelita
Дата кодирования : UTC 2014-04-27 06:23:08
Программа кодирования : mkvmerge v6.6.0 ('The Edge Of The In Between') built on Dec 7 2013 13:21:48
Библиотека кодирования : libebml v1.3.0 + libmatroska v1.4.1
Attachment : Yes
Видео
Идентификатор : 1
Формат : AVC
Формат/Информация : Advanced Video Codec
Профиль формата : High@L4.1
Параметр CABAC формата : Да
Параметр ReFrames формата : 9 кадров
Идентификатор кодека : V_MPEG4/ISO/AVC
Продолжительность : 1 ч. 28 м.
Битрейт : 10,5 Мбит/сек
Ширина : 1280 пикселей
Высота : 692 пикселя
Соотношение сторон : 1,85:1
Режим частоты кадров : Постоянный
Частота кадров : 23,976 кадра/сек
Цветовое пространство : YUV
Субдискретизация насыщенности : 4:2:0
Битовая глубина : 8 бит
Тип развёртки : Прогрессивная
Бит/(Пиксели*Кадры) : 0.494
Размер потока : 6,32 Гбайт (89%)
Библиотека кодирования : x264 core 142 r2409kMod d6b4e63
Настройки программы : cabac=1 / ref=9 / deblock=1:-3:-3 / analyse=0x3:0x113 / me=tesa / subme=10 / psy=1 / fade_compensate=0.00 / psy_rd=0.90:0.00 / mixed_ref=1 / me_range=32 / chroma_me=1 / trellis=2 / 8x8dct=1 / cqm=0 / deadzone=21,11 / fast_pskip=0 / chroma_qp_offset=-2 / threads=6 / lookahead_threads=1 / sliced_threads=0 / nr=0 / decimate=1 / interlaced=0 / bluray_compat=0 / constrained_intra=0 / fgo=0 / bframes=12 / b_pyramid=2 / b_adapt=2 / b_bias=0 / direct=3 / weightb=1 / open_gop=0 / weightp=2 / keyint=250 / keyint_min=23 / scenecut=40 / intra_refresh=0 / rc=2pass / mbtree=0 / bitrate=10500 / ratetol=1.0 / qcomp=0.70 / qpmin=0 / qpmax=69 / qpstep=4 / cplxblur=20.0 / qblur=0.5 / ip_ratio=1.30 / pb_ratio=1.20 / aq=1:0.80
Язык : English
Default : Да
Forced : Нет
Коэффициенты матрицы : BT.709
Аудио #1
Идентификатор : 2
Формат : AC-3
Формат/Информация : Audio Coding 3
Расширение режима : CM (complete main)
Параметр Endianness формата : Big
Идентификатор кодека : A_AC3
Продолжительность : 1 ч. 28 м.
Вид битрейта : Постоянный
Битрейт : 192 Кбит/сек
Каналы : 2 канала
Расположение каналов : Front: L R
Частота : 48,0 КГц
Битовая глубина : 16 бит
Метод сжатия : С потерями
Размер потока : 121 Мбайт (2%)
Заголовок : Русский ПМ (ИНИС для IVI.RU)
Язык : Russian
Default : Да
Forced : Нет
Аудио #2
Идентификатор : 3
Формат : AC-3
Формат/Информация : Audio Coding 3
Расширение режима : CM (complete main)
Параметр Endianness формата : Big
Идентификатор кодека : A_AC3
Продолжительность : 1 ч. 28 м.
Вид битрейта : Постоянный
Битрейт : 224 Кбит/сек
Каналы : 2 канала
Расположение каналов : Front: L R
Частота : 48,0 КГц
Битовая глубина : 16 бит
Метод сжатия : С потерями
Размер потока : 141 Мбайт (2%)
Заголовок : Русский ПМ (РЕН-ТВ)
Язык : Russian
Default : Нет
Forced : Нет
Аудио #3
Идентификатор : 4
Формат : AC-3
Формат/Информация : Audio Coding 3
Расширение режима : CM (complete main)
Параметр Endianness формата : Big
Идентификатор кодека : A_AC3
Продолжительность : 1 ч. 28 м.
Вид битрейта : Постоянный
Битрейт : 192 Кбит/сек
Каналы : 2 канала
Расположение каналов : Front: L R
Частота : 48,0 КГц
Битовая глубина : 16 бит
Метод сжатия : С потерями
Размер потока : 121 Мбайт (2%)
Заголовок : Русский АО (с VHS)
Язык : Russian
Default : Нет
Forced : Нет
Аудио #4
Идентификатор : 5
Формат : AC-3
Формат/Информация : Audio Coding 3
Расширение режима : CM (complete main)
Параметр Endianness формата : Big
Идентификатор кодека : A_AC3
Продолжительность : 1 ч. 28 м.
Вид битрейта : Постоянный
Битрейт : 192 Кбит/сек
Каналы : 2 канала
Расположение каналов : Front: L R
Частота : 48,0 КГц
Битовая глубина : 16 бит
Метод сжатия : С потерями
Размер потока : 121 Мбайт (2%)
Язык : English
Default : Нет
Forced : Нет
Аудио #5
Идентификатор : 6
Формат : AC-3
Формат/Информация : Audio Coding 3
Расширение режима : CM (complete main)
Параметр Endianness формата : Big
Идентификатор кодека : A_AC3
Продолжительность : 1 ч. 28 м.
Вид битрейта : Постоянный
Битрейт : 192 Кбит/сек
Каналы : 2 канала
Расположение каналов : Front: L R
Частота : 48,0 КГц
Битовая глубина : 16 бит
Метод сжатия : С потерями
Размер потока : 121 Мбайт (2%)
Заголовок : commentary
Язык : English
Default : Нет
Forced : Нет

Скриншоты













cd Рип дополнительно залит на mail.ru cd2
Remote Control 1988.x264.BDRip.720p.3xRus.kosmoaelita.mkv.torrent
 GOLD TORRENT! DOWNLOAD TRAFFIC DOES NOT CONSIDER! 
Torrent: Registered [ 2014-04-27 09:31 ]

Download .torrent

Download

71 KB

Status: checked
Completed: 3 times
Size: 7.07 GB
 


Last edited by admin on 2014-04-27 09:35; edited 1 time in total
[Profile] [PM]

admin ®

Gender: Male

Longevity: 8 years 3 months

Posts: 4796

Post 27-Apr-2014 09:32 (after 1 day 23 hours)

[Quote]

Добавлена озвучка АО с VHS
VHSRip vs. BDRip
[Profile] [PM]
Display posts:    
Reply to topic

Current time is: 05-Dec 09:11

All times are UTC + 3



You cannot post new topics in this forum
You cannot reply to topics in this forum
You cannot edit your posts in this forum
You cannot delete your posts in this forum
You cannot vote in polls in this forum
You cannot attach files in this forum
You can download files in this forum