Флэшмен / Flashman (Мино Лой / Mino Loy (as J. Lee Donan)) [1967 г., фантастика, DVDRip-AVC] ЛО (den904), СТ (Severnyj)

Ответить на тему
 
Автор Сообщение

admin ®

Пол: Мужской

Стаж: 5 лет 2 месяца

Сообщений: 4748

Откуда: Україна

Создавать темы 23-Апр-2014 22:21

[Цитировать]

Флэшмен / Flashman
Релиз - kosmoaelita. com
Год выпуска: 1967
Страна: Италия, Франция, Zenith Cinematografica
Жанр: фантастика, комедия, пародия
Продолжительность: 01:29:00
Перевод: ЛО den904 по cубтитрам на слух с анлийского от Severnyj
Режиссер: Мино Лой / Mino Loy (as J. Lee Donan)
В ролях:
Paolo Gozlino ... Lord Alex Burman / Flashman (as Paul Stevens)
Claudie Lange ... Alika
Ivano Staccioli ... Kid (as John Heston)
Jack Ary ... Inspector Baxter (as Jacques Ary)
Micaela Pignatelli ... Nevenka (as Micaela Cendali)
Anne Marie Williams ... Sheila
Seyna Seyn ... Flower
Emilio Messina ... Kid's Henchman
Dada Gallotti ... Alika in black
Sidi Del Burgo
Marisa Traversi
Gaston Cekani ... Commissioner Legrand
Sonja Romanoff ... Alika in blue (as Sonia Romanoff)
Giulio Tomei ... Professor Phillips (as Giulio C. Tomei)
Mirella Pamphili ... (credit only)
Описание:"Сюжет фильма вращается вокруг человека-невидимки, обольстительных женщин-мошенниц и миллионера, у которого есть второе «я», именуемое Флэшмэн. Действие фильма разворачивается подобно игре в кошки-мышки, когда Флэшмэн преследует преступников в различных экзотических местах. Флешмен, непонятно почему, привлекает на помощь неуклюжего детектива, работающего на Скотланд-Ярд. Источником вдохновения для Флэшмена был, без сомнения, Бэтмэн. Подобно другим супергероям, вроде Бэтмэна, у которого есть напарник Робин, у Флэшмэна тоже есть напарник, в роли которого выступает его эксцентричная и своевольная младшая сестра. Развитие сюжета местами напоминает сюжет фильмов про Остина Пауэрса, когда плохим парням удается с легкостью ускользать от преследователей.
Релиз

Качество: DVDRip-AVC
Формат: MKV
Видео: x264, 1751 кбит/с, 716x432@1018x432, 25 к/с, crf=19
Аудио 1: Русский ЛО (den904) (AC3, 2 ch, 192 Кбит/с)
Аудио 2: Итальянский (AC3, 2 ch, 192 Кбит/с)
Аудио 3: Английский (AC3, 2 ch, 192 Кбит/с)
Субтитры : Русские (Severnyj), шведские
Работа над релизом:
Релиз kosmoaelita.com
Перевод на слух с англ. по заказу kosmoaelita.com - Severnyj
Рип с ДВД9 - sasha20072007 (kosmoaelita)
Русская озвучка по заказу kosmoaelita - den904



Дополнительно

Also Known As (AKA)
(original title) Flashman
Austria Flashman - Der Unsichtbare
France Flashman contre les hommes invisibles
Greece (video title) Flashman, o anthropos astrapi
Portugal Flashman Contra o Homem Invisível
Sweden Osynlige mannen
West Germany Der Unsichtbare schlägt zu
West Germany Flashman - Der Unsichtbare
West Germany Superflashman
================================================
Для Украины: рип и оригинальный ДВД дополнительно залиты в файлохранилище
Рип дополнительно залит на mail.ru
Для удаления,добавления и извлечения дорожек в mkv используйте бесплатную портативную mkvmerge GUI 6.6.0
Для присоединения потом дорожек к avi воспользуйтесь VirtualDubMod

MediaInfo

Общее
Уникальный идентификатор : 243578225141995301572833178994009998972 (0xB73F75B2D79EF5BFA8835BBD04D8867C)
Полное имя : N:\Flashman 1967.x264.DVDRip.AVC.Rus.kosmoaelita.mkv
Формат : Matroska
Версия формата : Version 4 / Version 2
Размер файла : 1,45 Гбайт
Продолжительность : 1 ч. 29 м.
Общий поток : 2333 Кбит/сек
Название фильма : Flashman 1967 / rip from DVD5 by sasha20072007 (kosmoaelita) (2014-03-05), crf=19.18
Дата кодирования : UTC 2014-06-26 18:59:12
Программа кодирования : mkvmerge v6.6.0 ('The Edge Of The In Between') built on Dec 7 2013 13:21:48
Библиотека кодирования : libebml v1.3.0 + libmatroska v1.4.1
Attachment : Yes
Видео
Идентификатор : 1
Формат : AVC
Формат/Информация : Advanced Video Codec
Профиль формата : High@L4.1
Параметр CABAC формата : Да
Параметр ReFrames формата : 8 кадров
Идентификатор кодека : V_MPEG4/ISO/AVC
Продолжительность : 1 ч. 29 м.
Битрейт : 1751 Кбит/сек
Ширина : 716 пикселей
Высота : 432 пикселя
Соотношение сторон : 2,35:1
Соотношение сторон в оригинале : 2,35:1
Режим частоты кадров : Постоянный
Частота кадров : 25,000 кадров/сек
Цветовое пространство : YUV
Субдискретизация насыщенности : 4:2:0
Битовая глубина : 8 бит
Тип развёртки : Прогрессивная
Бит/(Пиксели*Кадры) : 0.226
Размер потока : 1,06 Гбайт (73%)
Библиотека кодирования : x264 core 130 r2273 b3065e6
Настройки программы : cabac=1 / ref=8 / deblock=1:-2:-2 / analyse=0x3:0x133 / me=umh / subme=11 / psy=1 / psy_rd=0.99:0.14 / mixed_ref=1 / me_range=24 / chroma_me=1 / trellis=2 / 8x8dct=1 / cqm=0 / deadzone=21,11 / fast_pskip=1 / chroma_qp_offset=-3 / threads=6 / lookahead_threads=1 / sliced_threads=0 / nr=0 / decimate=1 / interlaced=0 / bluray_compat=0 / constrained_intra=0 / bframes=8 / b_pyramid=2 / b_adapt=2 / b_bias=0 / direct=3 / weightb=1 / open_gop=0 / weightp=2 / keyint=200 / keyint_min=20 / scenecut=40 / intra_refresh=0 / rc_lookahead=60 / rc=2pass / mbtree=1 / bitrate=1751 / ratetol=1.0 / qcomp=0.63 / qpmin=0 / qpmax=69 / qpstep=4 / cplxblur=20.0 / qblur=0.5 / ip_ratio=1.25 / aq=1:0.90
Default : Да
Forced : Нет
Основные цвета : BT.601 PAL
Характеристики трансфера : BT.470 System B, BT.470 System G
Коэффициенты матрицы : BT.601
Аудио #1
Идентификатор : 2
Формат : AC-3
Формат/Информация : Audio Coding 3
Расширение режима : CM (complete main)
Параметр Endianness формата : Big
Идентификатор кодека : A_AC3
Продолжительность : 1 ч. 29 м.
Вид битрейта : Постоянный
Битрейт : 192 Кбит/сек
Каналы : 2 канала
Расположение каналов : Front: L R
Частота : 48,0 КГц
Битовая глубина : 16 бит
Метод сжатия : С потерями
Размер потока : 122 Мбайт (8%)
Заголовок : Русский ЛО (den904 для kosmoaelita.com)
Язык : Russian
Default : Да
Forced : Нет
Аудио #2
Идентификатор : 3
Формат : AC-3
Формат/Информация : Audio Coding 3
Расширение режима : CM (complete main)
Параметр Endianness формата : Big
Идентификатор кодека : A_AC3
Продолжительность : 1 ч. 29 м.
Вид битрейта : Постоянный
Битрейт : 192 Кбит/сек
Каналы : 2 канала
Расположение каналов : Front: L R
Частота : 48,0 КГц
Битовая глубина : 16 бит
Метод сжатия : С потерями
Размер потока : 122 Мбайт (8%)
Язык : Italian
Default : Нет
Forced : Нет
Аудио #3
Идентификатор : 4
Формат : AC-3
Формат/Информация : Audio Coding 3
Расширение режима : CM (complete main)
Параметр Endianness формата : Big
Идентификатор кодека : A_AC3
Продолжительность : 1 ч. 29 м.
Вид битрейта : Постоянный
Битрейт : 192 Кбит/сек
Каналы : 2 канала
Расположение каналов : Front: L R
Частота : 48,0 КГц
Битовая глубина : 16 бит
Метод сжатия : С потерями
Размер потока : 122 Мбайт (8%)
Язык : English
Default : Нет
Forced : Нет
Текст #1
Идентификатор : 5
Формат : VobSub
Режим смешивания : zlib
Идентификатор кодека : S_VOBSUB
Идентификатор кодека/Информация : The same subtitle format used on DVDs
Заголовок : Русский (kosmoaelita,Severnyj) VobSub
Язык : Russian
Default : Да
Forced : Нет
Текст #2
Идентификатор : 6
Формат : UTF-8
Идентификатор кодека : S_TEXT/UTF8
Идентификатор кодека/Информация : UTF-8 Plain Text
Заголовок : Русский (kosmoaelita,Severnyj) srt
Язык : Russian
Default : Нет
Forced : Нет
Текст #3
Идентификатор : 7
Формат : VobSub
Режим смешивания : zlib
Идентификатор кодека : S_VOBSUB
Идентификатор кодека/Информация : The same subtitle format used on DVDs
Язык : Swedish
Default : Нет
Forced : Нет
Меню
00:01:55.440 : en:00:01:55.440
00:07:18.240 : en:00:07:18.240
00:14:14.040 : en:00:14:14.040
00:23:31.920 : en:00:23:31.920
00:32:26.160 : en:00:32:26.160
00:38:16.920 : en:00:38:16.920
00:44:32.640 : en:00:44:32.640
00:51:46.680 : en:00:51:46.680
01:00:20.520 : en:01:00:20.520
01:07:46.800 : en:01:07:46.800
01:15:18.720 : en:01:15:18.720
01:22:07.560 : en:01:22:07.560
01:29:00.000 : en:01:29:00.000

Пример субтитров

1
00:00:14,979 --> 00:00:20,479
Флэшмен
2
00:02:11,021 --> 00:02:15,106
<Имперский колледж науки и технологии>
3
00:02:40,424 --> 00:02:43,225
Уже 10 часов, профессор Филлипс.
Пора идти домой.
4
00:02:43,310 --> 00:02:47,451
Да, я знаю... Но это невероятно
важный проект.
5
00:02:47,646 --> 00:02:51,661
В своих экспериментах я достиг
критической точки и, по-моему, обнаружил что-то невероятное.
6
00:02:52,591 --> 00:02:55,770
Вы можете идти, всё хорошо.
Я и сам закрою двери.
7
00:02:55,951 --> 00:02:57,669
Да нет, профессор, я могу подождать.
8
00:02:58,335 --> 00:03:04,161
Вы здесь недавно, друг мой.
Но через пару месяцев уже втянетесь в работу.
9
00:03:18,988 --> 00:03:20,388
Смотрите!
10
00:03:22,437 --> 00:03:25,812
Видите? Я это сделал!
Даже не верится!
11
00:03:25,937 --> 00:03:29,523
Вы гений, профессор.
Настоящий гений.
--------------------------
787
01:28:31,313 --> 01:28:36,400
Отпусти, негодяй! На помощь!
Это ужасно унизительно!
788
01:28:36,487 --> 01:28:38,587
Что скажут в Скотланд-Ярде?
789
01:28:39,837 --> 01:28:43,449
Не волнуйтесь, инспектор,
мы вас подбросим!
790
01:28:43,490 --> 01:28:47,005
Нет, только не в Лондон! Нет!

Скриншоты

















Последний раз редактировалось: admin (2014-06-26 23:06), всего редактировалось 6 раз(а)
[Профиль] [ЛС]

k-center

Пол: Мужской

Стаж: 4 года 5 месяцев

Сообщений: 179

Откуда: Украина

Создавать темы 24-Апр-2014 21:30 (спустя 23 часа)

[Цитировать]

Предлагаю перевод аннотации к фмльму:
Сюжет фильма вращается вокруг человека-невидимки, обольстительных женщин-мошенниц и миллионера, у которого есть второе «я», именуемое Флэшмэн. Действие фильма разворачивается подобно игре в кошки-мышки, когда Флэшмэн преследует преступников в различных экзотических местах. Небольшой недостаток сюжета заключается в том, что ни происхождение Флэшмена, ни его побудительные мотивы никогда толком не объясняются. Есть еще одна головоломка: Флешмен, непонятно почему, привлекает на помощь неуклюжего детектива, работающего на Скотланд-Ярд. Источником вдохновения для Флэшмена был, без сомнения, Бэтмэн. Подобно другим супергероям, вроде Бэтмэна, у которого есть напарник Робин, у Флэшмэна тоже есть напарник, в роли которого выступает его эксцентричная и своевольная младшая сестра. Развитие сюжета местами напоминает сюжет фильмов про Остина Пауэрса, когда плохим парням удается с легкостью ускользать от преследователей. Хотя Флэшмэн и имеет превосходство над своими противниками, плохим парням удается постоянно отделываться от него.
[Профиль] [ЛС]

admin ®

Пол: Мужской

Стаж: 5 лет 2 месяца

Сообщений: 4748

Откуда: Україна

Создавать темы 26-Июн-2014 21:53 (спустя 2 месяца 2 дня)

[Цитировать]

Добавлена русская озвучка
[Профиль] [ЛС]
Быстрый ответ

Имя:

            
Для отправки сообщений необходимо включить JavaScript
Показать сообщения:    
Ответить на тему

Текущее время: 20-Ноя 11:11

Часовой пояс: UTC + 3:30



Вы не можете начинать темы
Вы можете отвечать на сообщения
Вы не можете редактировать свои сообщения
Вы не можете удалять свои сообщения
Вы не можете голосовать в опросах
Вы не можете прикреплять файлы к сообщениям
Вы не можете скачивать файлы