Человек четвертого измерения / 4D Man (Ирвин Йаворт / Irvin S. Yeaworth) [1959, CША, фантастика, триллер, DVDRip] ЛО (den904), СТ (Антон Каптелов)

Reply to topic
 
Author Message

admin ®

Gender: Male

Longevity: 7 years 3 months

Posts: 4812

Post 09-Sep-2012 17:53

[Quote]

Человек четвертого измерения / 4D Man
Страна: CША, Fairview Productions, Jack H. Harris Productions
Жанр: фантастика, триллер
Год выпуска: 1959
Продолжительность: 1:22:30
Перевод: ЛО den904 по субтитрам от Антон Каптелов
Режиссер: Ирвин Йаворт / Irvin S. Yeaworth
В ролях: Роберт Лэнсинг, Ли Мэривизер, Джэймс Конгдон, Пэтти Дьюк, Роберт Страусс, Гай Рэймонд
Описание: Двое братьев-учёных создают уникальный прибор, позволяющий человеку перемещаться в четвёртое измерение и таким образом проходить сквозь любой объект. Один из братьев испытывает прибор на себе и обнаруживает, что побочным эффектом его воздействия оказывается быстрое преждевременное старение организма. А единственный способ вернуть молодость — убийства, позволяющие забирать жизненную энергию у других людей
Качество: DVDRip(AVC)
Видео: x264, 1624 Кбит/с, 704×544
Аудио 1: Русский ЛО (den904) (AC3, 2 ch, 192 Кбит/с)
Аудио 2: Английский (AC3, 2 ch, 192 Кбит/с)
Аудио 3: Немецкий (AC3, 2 ch, 160 Кбит/с)
Субтитры 1: Русские (Антон Каптелов)
Субтитры 2: Испанские
Субтитры 3: Португальские



Работа над релизом:
Рип с ДВД с синемагеддона, монтаж и синхр. субтитров и дорожек - kosmoaelita, качество рипа CRF=20.5
Субтитры не подходили совсем - пришлось синхронизировать с нуля.
Лог кодирования и постеры - внутри контейнера.
Русские субтитры-перевод - Антон Каптелов
Русская озвучка по заказу kosmoaelita - den904
Спонсор русской озвучки - Андрей Берг

Дополнительно

Для Украины: рип и ориг. ДВД дополнительно залит в файлохранилище
Для удаления,добавления и извлечения дорожек в mkv используйте бесплатную портативную mkvmerge GUI 7.1.0
Для присоединения потом дорожек к avi воспользуйтесь VirtualDubMod
Слоган «He Walks Through Walls Of Solid Steel And Stone... Into The 4th Dimension!»
Другие названия:
4-ulotteinen mies Finland
Delitto in 4ª dimensione Italy
Der 4D Mann Austria
El hombre de la cuarta dimensión Venezuela
Le monstre aux abois Belgium (French title)
Master of Terror USA (reissue title)
Quarta Dimensão Brazil
The Evil Force UK
Сравнение с рипом на рутрекере
Сравнение с исходником DVD5

MediaInfo

Общее
Уникальный идентификатор : 251765212230742820099157253871246452898 (0xBD6837539378DC6F969629DEF95F28A2)
Полное имя : E:\4D Man 1959.x264.DVDRip.Rus.kosmoaelita.mkv
Формат : Matroska
Версия формата : Version 4 / Version 2
Размер файла : 1,31 Гбайт
Продолжительность : 1 ч. 25 м.
Общий поток : 2208 Кбит/сек
Название фильма : Человек четвертого измерения / 4D man / 1959 / rip by sasha20072007 (kosmoaelita) crf=20.5
Дата кодирования : UTC 2014-11-02 07:21:09
Программа кодирования : mkvmerge v6.6.0 ('The Edge Of The In Between') built on Dec 1 2013 17:55:00
Библиотека кодирования : libebml v1.3.0 + libmatroska v1.4.1
Attachements : 4D man_T0233333.mkv.encoding.log / kinopoisk_ru-4D-Man-1374657--o--.jpg / 4d man.jpg / kinopoisk_ru-4D-Man-976689--o--.jpg / kinopoisk_ru-4D-Man-976690--o--.jpg / kinopoisk_ru-4D-Man-976691--o--.jpg
Видео
Идентификатор : 1
Формат : AVC
Формат/Информация : Advanced Video Codec
Профиль формата : High@L4.1
Параметр CABAC формата : Да
Параметр ReFrames формата : 8 кадров
Идентификатор кодека : V_MPEG4/ISO/AVC
Продолжительность : 1 ч. 25 м.
Битрейт : 1620 Кбит/сек
Ширина : 704 пикселя
Высота : 544 пикселя
Соотношение сторон : 1,294
Режим частоты кадров : Постоянный
Частота кадров : 23,976 кадра/сек
Цветовое пространство : YUV
Субдискретизация насыщенности : 4:2:0
Битовая глубина : 8 бит
Тип развёртки : Прогрессивная
Бит/(Пиксели*Кадры) : 0.176
Размер потока : 986 Мбайт (73%)
Библиотека кодирования : x264 core 120 r2164 da19765
Настройки программы : cabac=1 / ref=8 / deblock=1:-1:-1 / analyse=0x3:0x133 / me=umh / subme=11 / psy=1 / psy_rd=1.00:0.19 / mixed_ref=1 / me_range=24 / chroma_me=1 / trellis=2 / 8x8dct=1 / cqm=0 / deadzone=21,11 / fast_pskip=1 / chroma_qp_offset=-3 / threads=12 / sliced_threads=0 / nr=0 / decimate=1 / interlaced=0 / bluray_compat=0 / constrained_intra=0 / bframes=10 / b_pyramid=2 / b_adapt=2 / b_bias=0 / direct=1 / weightb=1 / open_gop=0 / weightp=2 / keyint=220 / keyint_min=22 / scenecut=40 / intra_refresh=0 / rc_lookahead=60 / rc=crf / mbtree=1 / crf=21.5 / qcomp=0.60 / qpmin=0 / qpmax=69 / qpstep=4 / vbv_maxrate=17500 / vbv_bufsize=14000 / crf_max=0.0 / nal_hrd=none / ip_ratio=1.25 / aq=1:0.90
Default : Да
Forced : Нет
Аудио #1
Идентификатор : 2
Формат : AC-3
Формат/Информация : Audio Coding 3
Расширение режима : CM (complete main)
Параметр Endianness формата : Big
Идентификатор кодека : A_AC3
Продолжительность : 1 ч. 25 м.
Вид битрейта : Постоянный
Битрейт : 192 Кбит/сек
Каналы : 2 канала
Расположение каналов : Front: L R
Частота : 48,0 КГц
Битовая глубина : 16 бит
Метод сжатия : С потерями
Размер потока : 117 Мбайт (9%)
Заголовок : Русский ЛО (den904 для kosmoaelita.com) - при поддержке А.Берг
Язык : Russian
Default : Да
Forced : Нет
Аудио #2
Идентификатор : 3
Формат : AC-3
Формат/Информация : Audio Coding 3
Расширение режима : CM (complete main)
Параметр Endianness формата : Big
Идентификатор кодека : A_AC3
Продолжительность : 1 ч. 25 м.
Вид битрейта : Постоянный
Битрейт : 192 Кбит/сек
Каналы : 1 канал
Расположение каналов : Front: C
Частота : 48,0 КГц
Битовая глубина : 16 бит
Метод сжатия : С потерями
Размер потока : 117 Мбайт (9%)
Язык : English
Default : Нет
Forced : Нет
Аудио #3
Идентификатор : 4
Формат : AC-3
Формат/Информация : Audio Coding 3
Расширение режима : CM (complete main)
Параметр Endianness формата : Big
Идентификатор кодека : A_AC3
Продолжительность : 1 ч. 25 м.
Вид битрейта : Постоянный
Битрейт : 160 Кбит/сек
Каналы : 2 канала
Расположение каналов : Front: L R
Частота : 48,0 КГц
Битовая глубина : 16 бит
Метод сжатия : С потерями
Размер потока : 97,4 Мбайт (7%)
Язык : German
Default : Нет
Forced : Нет
Текст #1
Идентификатор : 5
Формат : VobSub
Режим смешивания : zlib
Идентификатор кодека : S_VOBSUB
Идентификатор кодека/Информация : The same subtitle format used on DVDs
Язык : Russian
Default : Да
Forced : Да
Текст #2
Идентификатор : 6
Формат : UTF-8
Идентификатор кодека : S_TEXT/UTF8
Идентификатор кодека/Информация : UTF-8 Plain Text
Язык : Russian
Default : Нет
Forced : Нет
Текст #3
Идентификатор : 7
Формат : UTF-8
Идентификатор кодека : S_TEXT/UTF8
Идентификатор кодека/Информация : UTF-8 Plain Text
Язык : Spanish
Default : Нет
Forced : Нет
Текст #4
Идентификатор : 8
Формат : UTF-8
Идентификатор кодека : S_TEXT/UTF8
Идентификатор кодека/Информация : UTF-8 Plain Text
Язык : Portuguese
Default : Нет
Forced : Нет
Меню
00:00:00.000 : :Chapter 01
00:05:26.567 : :Chapter 02
00:13:05.700 : :Chapter 03
00:18:17.167 : :Chapter 04
00:20:26.901 : :Chapter 05
00:22:13.135 : :Chapter 06
00:26:45.069 : :Chapter 07
00:29:25.403 : :Chapter 08
00:32:44.371 : :Chapter 09
00:34:35.838 : :Chapter 10
00:37:53.938 : :Chapter 11
00:48:50.071 : :Chapter 12
00:51:08.438 : :Chapter 13
00:59:35.638 : :Chapter 14
01:04:07.539 : :Chapter 15
01:07:36.906 : :Chapter 16
01:12:12.607 : :Chapter 17
01:17:26.074 : :Chapter 18
01:24:57.408 : :Chapter 19

Скриншоты



Скринлист

cd Рип дополнительно залит на mail.ru cd2


Last edited by admin on 2014-11-02 12:39; edited 8 times in total
[Profile] [PM]

admin ®

Gender: Male

Longevity: 7 years 3 months

Posts: 4812

Post 02-Nov-2014 09:15 (after 2 years 1 month)

[Quote]

Доавлена русская озвучка от den904
[Profile] [PM]

Guest

Gender: Unknown

Post 21-Jan-2018 14:45 (after 3 years 2 months)

[Quote]

Отличный фильм!
 
Quick Reply

Name:

            
Heads necessary to send messages to enable JavaScript
Display posts:    
Reply to topic

Current time is: 13-Dec 03:42

All times are UTC + 3



You cannot post new topics in this forum
You can reply to topics in this forum
You cannot edit your posts in this forum
You cannot delete your posts in this forum
You cannot vote in polls in this forum
You cannot attach files in this forum
You cannot download files in this forum