Мегапаук / Большая задница / Big Ass Spider (Майк Мендез / Mike Mendez) [2013 г., Фантастика, комедия, BDRip-1080p ScenRip] ЛО (ХиХиДок)

Reply to topic
DL-List and Torrent activity
Size:  5.58 GB   |    Registered:  6 years 1 month   |    Completed:  1 time

Seeder not seen: 48 minutes

 
   
 
 
 
Author Message

admin ®

Gender: Male

Longevity: 7 years 9 months

Posts: 4799

Post 21-Apr-2014 01:55

[Quote]

Мегапаук / Большая задница / Big Ass Spider
Год выпуска: 2013
Страна: США, Epic Pictures Group, Film Entertainment Services
Жанр: Фантастика, комедия
Продолжительность: 01:30:20
Перевод: Любительский одноголосый ХиХиДок
Режиссер: Майк Мендез / Mike Mendez
В ролях:
Lin Shaye ... Mrs. Jefferson
Ray Wise ... Major Braxton Tanner
Greg Grunberg ... Alex Mathis
Clare Kramer ... Lieutenant Karly Brant
Patrick Bauchau ... Lucas
Lloyd Kaufman ... Himself - Jogger
Chaton Anderson ... Girl with the rack
Lombardo Boyar ... Jose Ramos
Adam Gierasch ... Homeless Man
Alexis Knight ... Nurse Lisa (as Alexis Peters)
Ruben Pla ... Carl
Mary Czerwinski ... Victim
James C. Mathis III ... Street Cop
Eben Kostbar ... Lead Technician
Staci Layne Wilson ... Cocoon Victim
Описание: Маленький паучок выживает после случайного воздействия сильной порции секретного препарата и начинает быстро увеличиваться в размерах. Проникнув в Лос-Анджелес, он занимается своим привычным делом: руки-ноги он всем веревками крутит, зубы острые в самое сердце вонзает и кровушку тёплую выпивает. За его поимку взялась доблестная армия и один гражданский. Ситуация осложняется тем, что паук темный, страшный и постоянно куда-то убегает...
Качество: BDRip-1080p ScenRip
Формат: MKV
Видео: x264, 8185 кбит/с, 1920x1080, 23.976 к/с
Аудио 1: Русский ЛО (ХиХиДок)(AC3, 2 ch, 192 Кбит/с)
Аудио 2: Английский (DTS, 6 ch, 1510 Кбит/с)
Субтитры : Английские
Работа над релизом:
Сетевой торрент



Трейлер

Дополнительно

рейтинг MPAA детям до 13 лет просмотр не желателен
Also Known As (AKA)
(original title) Big Ass Spider
Estonia Päratu ämblik
USA (working title) Mega Spider
World-wide (English title) Mega Spider
================================================
Для Украины: рип дополнительно залит в файлохранилище
Рип дополнительно залит на mail.ru
Для удаления,добавления и извлечения дорожек в mkv используйте бесплатную портативную mkvmerge GUI 6.6.0
Для присоединения потом дорожек к avi воспользуйтесь VirtualDubMod

Отзывы

Тема женской обнажёнки раскрыта, спасибо !
-------------------------------------
Обычно от радиации всё живое умирает, но пауку, ставшему главным героем этого фильма, повезло. Причём, он не только не погиб, но и стал очень быстро расти, вскоре достигнув чудовищных размеров. В поисках пищи мегапаук проникает на улицы Лос-Анджелеса, сея там ужас и разрушения. И хотя против него брошена целая армия, пока военным мало что удается сделать с монстром. Борьба с пауком осложняется ещё и тем, что теперь этот восьминогий убийца способен становиться почти невидимым.
-------------------------------
xixidok сказал(а):
Никакой невидимой мимикрии в фильме нет..Паук тупо обожрался стимуляторов для роста помидоров с добавлением микробов с Марса..)))))))))
-------------------------
Класс! Большое спасибо!
"Толстожопые пауки" даже посетили прокат США. Из фильмов про пауков такой же чести удостаивались только "Арахнофобия" от Спилберга и "Атака пауков" от Эммериха.
Ещё из достойных лент про восьминогих уродцев можно вспомнить "Пауки" (Spiders, 2000), "Арахнид" (Arachnid, 2001) от мастера ужасов Брайана Юзна, "Инвазия" (Вторжение, Infestation, 2009) и "Земля против паука" (Earth vs. the Spider, обе версии)...

Рецензия

MediaInfo

General
Unique ID : 242692045502718665354957448698423856044 (0xB694C9AB488E1745A27D162F3C1ECBAC)
Complete name : H:\Big.Ass.Spider.2013.Blu.Ray.1080p.CINEMANIA.mkv.!ut
Format : Matroska
Format version : Version 4 / Version 2
File size : 5.58 GiB
Duration : 1h 30mn
Overall bit rate : 8 825 Kbps
Movie name : Release Group CINEMANIA
Encoded date : UTC 2014-04-20 19:06:38
Writing application : mkvmerge v6.9.1 ('Blue Panther') 64bit built on Apr 18 2014 18:23:38
Writing library : libebml v1.3.0 + libmatroska v1.4.1
Video
ID : 1
Format : AVC
Format/Info : Advanced Video Codec
Format profile : High@L4.1
Format settings, CABAC : Yes
Format settings, ReFrames : 4 frames
Codec ID : V_MPEG4/ISO/AVC
Duration : 1h 30mn
Bit rate : 6 948 Kbps
Nominal bit rate : 8 185 Kbps
Width : 1 920 pixels
Height : 1 080 pixels
Display aspect ratio : 16:9
Frame rate mode : Constant
Frame rate : 23.976 fps
Color space : YUV
Chroma subsampling : 4:2:0
Bit depth : 8 bits
Scan type : Progressive
Bits/(Pixel*Frame) : 0.140
Stream size : 4.39 GiB (79%)
Title : Release Group CINEMANIA
Writing library : x264 core 140 r2377 1ca7bb9
Encoding settings : cabac=1 / ref=4 / deblock=1:0:0 / analyse=0x3:0x133 / me=umh / subme=7 / psy=1 / psy_rd=1.00:0.00 / mixed_ref=1 / me_range=16 / chroma_me=1 / trellis=1 / 8x8dct=1 / cqm=0 / deadzone=21,11 / fast_pskip=0 / chroma_qp_offset=-2 / threads=12 / lookahead_threads=2 / sliced_threads=0 / nr=0 / decimate=1 / interlaced=fake / bluray_compat=0 / constrained_intra=0 / bframes=3 / b_pyramid=2 / b_adapt=1 / b_bias=0 / direct=1 / weightb=1 / open_gop=0 / weightp=2 / keyint=240 / keyint_min=23 / scenecut=40 / intra_refresh=0 / rc_lookahead=40 / rc=2pass / mbtree=1 / bitrate=8185 / ratetol=1.0 / qcomp=0.60 / qpmin=10 / qpmax=69 / qpstep=4 / cplxblur=20.0 / qblur=0.5 / ip_ratio=1.40 / aq=1:1.00
Language : English
Default : Yes
Forced : No
Audio #1
ID : 2
Format : AC-3
Format/Info : Audio Coding 3
Mode extension : CM (complete main)
Format settings, Endianness : Big
Codec ID : A_AC3
Duration : 1h 30mn
Bit rate mode : Constant
Bit rate : 192 Kbps
Channel(s) : 2 channels
Channel positions : Front: L R
Sampling rate : 44.1 KHz
Bit depth : 16 bits
Compression mode : Lossy
Stream size : 124 MiB (2%)
Title : ХиХиДок
Language : Russian
Default : Yes
Forced : Yes
Audio #2
ID : 3
Format : DTS
Format/Info : Digital Theater Systems
Mode : 16
Format settings, Endianness : Big
Codec ID : A_DTS
Duration : 1h 30mn
Bit rate mode : Constant
Bit rate : 1 509 Kbps
Channel(s) : 6 channels
Channel positions : Front: L C R, Side: L R, LFE
Sampling rate : 48.0 KHz
Bit depth : 16 bits
Compression mode : Lossy
Stream size : 977 MiB (17%)
Language : English
Default : No
Forced : No
Text
ID : 4
Format : UTF-8
Codec ID : S_TEXT/UTF8
Codec ID/Info : UTF-8 Plain Text
Language : English
Default : No
Forced : No
Menu
00:00:00.000 : en:00:00:00.000
00:05:52.477 : en:00:05:52.477
00:13:16.212 : en:00:13:16.212
00:20:04.786 : en:00:20:04.786
00:27:09.336 : en:00:27:09.336
00:35:03.476 : en:00:35:03.476
00:42:32.341 : en:00:42:32.341
00:49:46.108 : en:00:49:46.108
00:56:21.586 : en:00:56:21.586
01:00:23.870 : en:01:00:23.870
01:05:45.983 : en:01:05:45.983
01:12:19.251 : en:01:12:19.251

Скриншоты






cd Рип дополнительно залит на mail.ru cd2
Big.Ass.Spider.2013.Blu.Ray.1080p.CINEMANIA.mkv.torrent
 GOLD TORRENT! DOWNLOAD TRAFFIC DOES NOT CONSIDER! 
Torrent: Registered [ 2014-04-21 01:55 ]

Download .torrent

Download

29 KB

Status: checked
Completed: 1 times
Size: 5.58 GB
 


Last edited by admin on 2014-04-21 10:47; edited 1 time in total
[Profile] [PM]

admin ®

Gender: Male

Longevity: 7 years 9 months

Posts: 4799

Post 21-Apr-2014 02:17 (after 22 minutes)

[Quote]

Сетевая раздача
[Profile] [PM]
Display posts:    
Reply to topic

Current time is: 04-Jun 20:56

All times are UTC + 3



You cannot post new topics in this forum
You cannot reply to topics in this forum
You cannot edit your posts in this forum
You cannot delete your posts in this forum
You cannot vote in polls in this forum
You cannot attach files in this forum
You can download files in this forum