Взломщики сознания / Starquest II / Starquest II & Mind breakers (Фред Галло / Fred Gallo) [1997 г., фантастика, триллер, VHSRip] АО (Ю.Живов)

Reply to topic
 
Author Message

admin ®

Gender: Male

Longevity: 7 years 9 months

Posts: 4799

Post 20-Apr-2014 19:06

[Quote]

Взломщики сознания / Starquest II / Starquest II & Mind breakers
Год выпуска: 1997
Страна: США, The Pacific Trust
Жанр: фантастика, триллер
Продолжительность: 01:28:58
Перевод: Авторский одноголосый Ю.Живов
Режиссер: Фред Галло / Fred Gallo
В ролях: Adam Baldwin ... Lee
Robert Englund ... Father O'Neill
Duane Davis ... Cpl. Charles Devon
Kate Rodger ... Susan
Gretchen Palmer ... Carrie
Jeannie Millar ... Jenna
Jolie Jackunas ... Cpl. Kelly
Jerry Trimble ... Trit
Описание: Продолжение первой части: Terminal Voyage / Starquest / 1994
Несколько людей оказались на межкосмическом инопланетном корабле. Вскоре выяснилось, что в результате глобальных войн все живое на Земле погибло, а корабль направляется к Марсу. Но с какой целью и по какому принципу были отобраны эти совершенно разные люди? И что им сулит пребывание на этом корабле — спасение или гибель?..

Качество: VHSRip
Формат: MKV
Качество: VHSRip
Формат: MKV
Видео: xviD, 1896 кбит/с, 720x544, 25 к/с
Аудио 1: Русский АО (Ю.Живов) (AC3, 2 ch, 192 Кбит/с)
Аудио 2: Английский (AC3, 2 ch, 192 Кбит/с)
Работа над релизом:
Рип найден в юзенете.
Синхрон русской дорожки - sasha20072007 (kosmoaelita)
Длинные муз. фрагменты заменены более качественными с англ. дорожки



Пример русской озвучки

Дополнительно

рейтинг MPAA лицам до 17 лет обязательно присутствие взрослого
Also Known As (AKA)
(original title) Starquest II
Australia (cable TV title) Mind Breakers
Greece Antepithesi
Italy Illusione della mente
Italy (DVD title) Mind breakers - Illusioni della mente
USA (alternative title) Galactic Odyssey
Venezuela Odisea galáctica
================================================
Для Украины: рип дополнительно залит в файлохранилище
Рип дополнительно залит на mail.ru
Сравнение: kosmoaelita.com vs. rutracker
Для удаления,добавления и извлечения дорожек в mkv используйте бесплатную портативную mkvmerge GUI 6.6.0
Для присоединения потом дорожек к avi воспользуйтесь VirtualDubMod

Знаете ли вы, что...

Продолжение. Первая часть Последняя грань / Смертельный вояж / Terminal Voyage / Starquest / 1994
http://kosmoaelita.com/viewtopic.php?t=1177

Отзывы

Странный фильм. Как и в первой части есть кадры из более ранних работ создателей, только здесь они занимают чуть ли не треть экранного времени и никак не привязаны к сюжету (а подчас и по просту не логичны и противоречат ему), и более того не привязаны к конкретным моментам и звуковой дорожке идущей в эти моменты. Смотрится подозрительно. Сам сюжет основан на идеи первого фильма, но его перекрутили, переврали и вывернули так, что даже и закончить не смогли. Одним словом всё плохо и примерно по смыслу перевод вносит дополнительную сумятицу.
Я бы поставил 1 из 10-ти возможных
-----------------------------------------------

Рецензия

MediaInfo

Общее
Уникальный идентификатор : 206701436025579516516606115769268158720 (0x9B813F9EF01D53A19B675FA39B0DC100)
Полное имя : F:\Starquest II & Mind breakers 1997.XviD.VHSRip.Rus.kosmoaelita.mkv
Формат : Matroska
Версия формата : Version 4 / Version 2
Размер файла : 1,45 Гбайт
Продолжительность : 1 ч. 28 м.
Общий поток : 2326 Кбит/сек
Название фильма : Взломщики сознания / Starquest II / Starquest II & Mind breakers / 1997 / Релиз kosmoaelita
Дата кодирования : UTC 2014-04-20 18:49:01
Программа кодирования : mkvmerge v6.6.0 ('The Edge Of The In Between') built on Dec 7 2013 13:21:48
Библиотека кодирования : libebml v1.3.0 + libmatroska v1.4.1
Attachment : Yes
Видео
Идентификатор : 1
Формат : MPEG-4 Visual
Профиль формата : Advanced Simple@L5
Параметр BVOP формата : Да
Параметр QPel формата : Нет
Параметр GMC формата : Без точки перехода
Параметр матрицы формата : Default (MPEG)
Идентификатор кодека : V_MS/VFW/FOURCC / XVID
Идентификатор кодека/Подсказка : XviD
Продолжительность : 1 ч. 28 м.
Битрейт : 1896 Кбит/сек
Ширина : 720 пикселей
Высота : 544 пикселя
Соотношение сторон : 4:3
Режим частоты кадров : Постоянный
Частота кадров : 25,000 кадров/сек
Цветовое пространство : YUV
Субдискретизация насыщенности : 4:2:0
Битовая глубина : 8 бит
Тип развёртки : Прогрессивная
Метод сжатия : С потерями
Бит/(Пиксели*Кадры) : 0.194
Размер потока : 1,18 Гбайт (82%)
Заголовок : Релиз www.kosmoaelita.com
Библиотека кодирования : XviD 1.2.1 (UTC 2008-12-04)
Default : Да
Forced : Нет
Аудио #1
Идентификатор : 2
Формат : AC-3
Формат/Информация : Audio Coding 3
Расширение режима : CM (complete main)
Параметр Endianness формата : Big
Идентификатор кодека : A_AC3
Продолжительность : 1 ч. 28 м.
Вид битрейта : Постоянный
Битрейт : 192 Кбит/сек
Каналы : 2 канала
Расположение каналов : Front: L R
Частота : 48,0 КГц
Битовая глубина : 16 бит
Метод сжатия : С потерями
Размер потока : 122 Мбайт (8%)
Заголовок : Русский АО (Ю.Живов) с VHS
Язык : Russian
Default : Да
Forced : Нет
Аудио #2
Идентификатор : 3
Формат : AC-3
Формат/Информация : Audio Coding 3
Расширение режима : CM (complete main)
Параметр Endianness формата : Big
Идентификатор кодека : A_AC3
Продолжительность : 1 ч. 28 м.
Вид битрейта : Постоянный
Битрейт : 192 Кбит/сек
Каналы : 2 канала
Расположение каналов : Front: L R
Частота : 48,0 КГц
Битовая глубина : 16 бит
Метод сжатия : С потерями
Размер потока : 122 Мбайт (8%)
Язык : English
Default : Нет
Forced : Нет

Скриншоты





















cd Рип дополнительно залит на mail.ru cd2


Last edited by admin on 2014-04-20 22:29; edited 3 times in total
[Profile] [PM]

admin ®

Gender: Male

Longevity: 7 years 9 months

Posts: 4799

Post 20-Apr-2014 22:22 (after 3 hours)

[Quote]

Сравнение: kosmoaelita.com vs. rutracker
[Profile] [PM]

Guest

Gender: Unknown

Post 27-Nov-2015 21:35 (after 1 year 7 months)

[Quote]

Фильм не радует абсолютно ничем!
Фильмы в таком качестве можно смотреть только при наличии в них хоть какого то смысла,а здесь он отсутствует.
До конца думал,что хоть чем то меня этот фильм зацепит,но нет.
Однозначно в топку.
 
Display posts:    
Reply to topic

Current time is: 03-Jun 13:50

All times are UTC + 3



You cannot post new topics in this forum
You cannot reply to topics in this forum
You cannot edit your posts in this forum
You cannot delete your posts in this forum
You cannot vote in polls in this forum
You cannot attach files in this forum
You cannot download files in this forum