Люди слизни / Люди-слизни / The Slime People (Роберт Хаттон / Robert Hutton) [1963 г., Фантастика, ужасы, боевик, DVDRip] АО (Трамвай-фильм)

Reply to topic
 
Author Message

admin ®

Gender: Male

Longevity: 8 years

Posts: 4794

Post 18-Apr-2014 11:33

[Quote]

Люди слизни / Люди-слизни / The Slime People
Год выпуска: 1963
Страна: США , Joseph F. Robertson Productions
Жанр: Фантастика, ужасы, боевик
Продолжительность: 01:16:46
Перевод: Авторский одноголосый
Режиссер: Роберт Хаттон / Robert Hutton
В ролях: Robert Hutton ... Tom Gregory
Les Tremayne ... Norman Tolliver
Robert Burton ... Prof. Galbraith
Susan Hart ... Lisa Galbraith
William Boyce ... Cal Johnson
Judee Morton ... Bonnie Galbraith
John Close ... KTTV Reporter Vince Williams
Описание: Лос-Анджелес атакован доисторическими агрессивными тварями подземного происхождения, вследствие деятельности которых город окутал густой туман. Небольшой группе людей предстоит выжить в опустевшем мегаполисе и найти способ выбраться из него.
Качество: DVDRip
Формат: AVI
Видео: xviD, 2520 кбит/с, 720x544, 23.976 к/с
Аудио 1: Русский АО (Трамвай-фильм) (AC3, 2 ch, 192 Кбит/с)
Аудио 2: Английский (AC3, 2 ch, 192 Кбит/с)
Работа над релизом:
Рип найден в сети
Авторский перевод и озвучка - Трамвай-фильм



Трейлер

Дополнительно

слоган «Up from the bowels of the earth come...»
бюджет $56 000
Also Known As (AKA)
(original title) The Slime People
Mexico Los ojos escamosos
USA (working title) Tomorrow You Die
================================================
Для Украины: рип и оригинальный ДВД дополнительно залиты в файлохранилище
Рип дополнительно залит на mail.ru
Для удаления,добавления и извлечения дорожек в mkv используйте бесплатную портативную mkvmerge GUI 6.6.0
Для присоединения потом дорожек к avi воспользуйтесь VirtualDubMod

Знаете ли вы, что...

Блэр Робертсон, которая была одним из сценаристов, играет миссис Кастилло в кадрах новостей.
Двух бродяг, появившихся в театре, играют Джозеф Ф. Робертсон и Эдвард Финч Абрамс, являющиеся продюсерами фильма.
По словам Роберта Хаттона, на создание костюмов монстров ушла половина бюджета всего фильма.
Сцены в мясном магазине и холодильнике снимались в настоящем магазине, которым владел отчим актера Роберта Хаттона.
Единственная режиссёрская работа Роберта Хаттона.
Ричард Арлен первоначально рассматривался на роль доктора Гэлбрейта.

Отзывы

фильм, конечно, тот еще шедевр
но интересен прежде всего тем, что является единственной режиссерской работой известного актера Роберта Хаттона
явный трэш, но в коллекцию сай-фай-ужастиков пойдет
-------------------------------
Для меня загадка, как куча слизней, которых в кадре не более 3х, видимо из-за числа костюмов, умудрилась победить армию США?

Рецензия

alex1970
Репортер попадает в полосу жуткого тумана, а когда из него выбирается, то оказывается в жутком кошмаре. Из подземного мира поднялись люди-слизни, окружили город куполом и начали охоту на обычных людей.
Немногие выжившие организовывают сопротивление пришельцам из недр.
Этот фильм был дешевым трэшем в момент выхода, и лучше с прошедшими годами не стал.
Глупый сценарий, соответственная игра актеров. Из плюсов – неплохие монстры.
Временами картина забавна.
Смотреть ее можно как артефакт фантастики того периода (в любом ином качестве, на мой взгляд, она абсолютно неинтересна).

MediaInfo

Общее
Полное имя : N:\The Slime People 1963.XviD.DVDRip.Rus.avi
Формат : AVI
Формат/Информация : Audio Video Interleave
Размер файла : 1,56 Гбайт
Продолжительность : 1 ч. 16 м.
Общий поток : 2918 Кбит/сек
Программа кодирования : VirtualDubMod 1.6.0.0 SURROUND (build 2560/release)
Библиотека кодирования : VirtualDubMod build 2560/release
Видео
Идентификатор : 0
Формат : MPEG-4 Visual
Профиль формата : Advanced Simple@L5
Параметр BVOP формата : 1
Параметр QPel формата : Нет
Параметр GMC формата : Без точки перехода
Параметр матрицы формата : Выборочная
Идентификатор кодека : XVID
Идентификатор кодека/Подсказка : XviD
Продолжительность : 1 ч. 16 м.
Битрейт : 2520 Кбит/сек
Ширина : 720 пикселей
Высота : 544 пикселя
Соотношение сторон : 4:3
Частота кадров : 23,976 кадра/сек
Цветовое пространство : YUV
Субдискретизация насыщенности : 4:2:0
Битовая глубина : 8 бит
Тип развёртки : Прогрессивная
Метод сжатия : С потерями
Бит/(Пиксели*Кадры) : 0.268
Размер потока : 1,35 Гбайт (86%)
Библиотека кодирования : XviD 1.2.0.dev47 (UTC 2006-11-01)
Аудио #1
Идентификатор : 1
Формат : AC-3
Формат/Информация : Audio Coding 3
Расширение режима : CM (complete main)
Параметр Endianness формата : Big
Идентификатор кодека : 2000
Продолжительность : 1 ч. 16 м.
Вид битрейта : Постоянный
Битрейт : 192 Кбит/сек
Каналы : 2 канала
Расположение каналов : Front: L R
Частота : 48,0 КГц
Битовая глубина : 16 бит
Метод сжатия : С потерями
Размер потока : 105 Мбайт (7%)
Выравнивание : Разделение по промежуткам
Продолжительность промежутка : 42 мс. (1,00 видеокадр)
Время предзагрузки промежутка : 500 мс.
Аудио #2
Идентификатор : 2
Формат : AC-3
Формат/Информация : Audio Coding 3
Расширение режима : CM (complete main)
Параметр Endianness формата : Big
Идентификатор кодека : 2000
Продолжительность : 1 ч. 16 м.
Вид битрейта : Постоянный
Битрейт : 192 Кбит/сек
Каналы : 2 канала
Расположение каналов : Front: L R
Частота : 48,0 КГц
Битовая глубина : 16 бит
Метод сжатия : С потерями
Размер потока : 105 Мбайт (7%)
Выравнивание : Разделение по промежуткам
Продолжительность промежутка : 42 мс. (1,00 видеокадр)
Время предзагрузки промежутка : 500 мс.

Скриншоты













cd Рип дополнительно залит на mail.ru cd2
[Profile] [PM]
Display posts:    
Reply to topic

Current time is: 26-Sep 14:31

All times are UTC + 3



You cannot post new topics in this forum
You cannot reply to topics in this forum
You cannot edit your posts in this forum
You cannot delete your posts in this forum
You cannot vote in polls in this forum
You cannot attach files in this forum
You cannot download files in this forum