Пожиратели мозгов / The Brain Eaters (Бруно ВеСота / Bruno VeSota) [1958 г., фантастика, ужасы, WEBRip-720p] АО (Трамвай-фильм)

Reply to topic
 
Author Message

admin ®

Gender: Male

Longevity: 9 years 1 month

Posts: 4771

Post 10-Apr-2014 21:27

[Quote]

Пожиратели мозгов / The Brain Eaters
Год выпуска: 1958
Страна: США, American International Pictures (AIP
Жанр: фантастика, ужасы
Продолжительность: 01:01:01
Перевод: Авторский одноголосый Трамвай-фильм
Режиссер: Бруно ВеСота / Bruno VeSota
В ролях:
Ed Nelson ... Dr. Paul Kettering (as Edwin Nelson)
Alan Jay Factor ... Glenn Cameron (as Alan Frost)
Cornelius Keefe ... Senator Walter K. Powers (as Jack Hill)
Joanna Lee ... Alice Summers
Jody Fair ... Elaine Cameron
David Hughes ... Dr. Wyler
Robert Ball ... Dan Walker
Greigh Phillips ... Sheriff
Orville Sherman ... Mayor Cameron
Leonard Nimoy ... Professor Cole (as Leonard Nemoy)
Doug Banks ... Doctor
Henry Randolph ... Telegrapher
Saul Bronson ... Prof. Helsingman
Описание: В городке Ривердеил, штат Иллинойс творятся странные вещи. Сначала сын мэра находит множество трупов животных, потом обнаруживается странные металлический конус, похожий на ракету, потом пропадает сам мэр города, а когда его находят выясняется жуткая действительность того, что тут происходит.
Качество: WEBRip-720p
Формат: MKV
Видео: x264, 3249 кбит/с, 1280x720, 23.976 к/с
Аудио 1: Русский АО (Трамвай) (AC3, 2 ch, 192 Кбит/с)
Аудио 2: Английский (AC3, 2 ch, 192 Кбит/с)
Работа над релизом:
Видеоряд найден на Синемагеддоне
Синхронизация русской дорожки - kosmoaelita
Перевод и озвучка - Трамвай-фильм



Пример русской озвучки

Дополнительно

слоган «Crawling, Slimy Things Terror-Bent on Destroying the World!»
бюджет $30 000
Also Known As (AKA)
(original title) The Brain Eaters
Keepers of the Earth
The Brain Snatchers
The Keepers
Spain Los devoradores de cerebros
France (DVD title) Les Mangeurs de Cerveau
Mexico Las sanguijuelas humanas
================================================
Для Украины: рип дополнительно залит в файлохранилище
Рип дополнительно залит на mail.ru
Сравнение: kosmoaelita.com vs. Tramvaj
Для удаления,добавления и извлечения дорожек в mkv используйте бесплатную портативную mkvmerge GUI 6.6.0
Для присоединения потом дорожек к avi воспользуйтесь VirtualDubMod

MediaInfo

Общее
Уникальный идентификатор : 232600780311602053254612799084307530757 (0xAEFD47E1C99F34B0A8CB7631D92DC405)
Полное имя : N:\BD-DISC\The Brain Eaters 1958.x264.WEBRip.720p.Rus.kosmoaelita.mkv
Формат : Matroska
Версия формата : Version 4
Размер файла : 1,58 Гбайт
Продолжительность : 1 ч. 1 м.
Режим общего битрейта : Переменный
Общий поток : 3698 Кбит/сек
Название фильма : The Brain Eaters / 1958 / kosmoaelita
Дата кодирования : UTC 2021-07-02 15:17:23
Программа кодирования : mkvmerge v6.6.0 ('The Edge Of The In Between') built on Dec 1 2013 17:55:00
Библиотека кодирования : libebml v1.3.0 + libmatroska v1.4.1
Attachments : poster.jpg
Видео
Идентификатор : 1
Формат : AVC
Формат/Информация : Advanced Video Codec
Профиль формата : High@L4.1
Настройки формата : CABAC / 2 Ref Frames
Параметр CABAC формата : Да
Параметр RefFrames формата : 2 кадра
Параметр GOP формата : M=3, N=24
Идентификатор кодека : V_MPEG4/ISO/AVC
Продолжительность : 1 ч. 1 м.
Вид битрейта : Переменный
Битрейт : 3240 Кбит/сек
Максимальный битрейт : 4972 Кбит/сек
Ширина : 1280 пикселей
Высота : 720 пикселей
Соотношение сторон : 16:9
Режим частоты кадров : Постоянный
Частота кадров : 23,976 (24000/1001) кадра/сек
Цветовое пространство : YUV
Субдискретизация насыщенности : 4:2:0
Битовая глубина : 8 бит
Тип развёртки : Прогрессивная
Бит/(Пиксели*Кадры) : 0.147
Размер потока : 1,38 Гбайт (88%)
Заголовок : http://kosmoaelita.com/viewtopic.php?t=1168
Default : Да
Forced : Нет
Аудио #1
Идентификатор : 2
Формат : AC-3
Формат/Информация : Audio Coding 3
Коммерческое название : Dolby Digital
Идентификатор кодека : A_AC3
Продолжительность : 1 ч. 1 м.
Вид битрейта : Постоянный
Битрейт : 192 Кбит/сек
Каналы : 2 канала
ChannelLayout : L R
Частота : 48,0 КГц
Частота кадров : 31,250 кадров/сек (1536 SPF)
Метод сжатия : С потерями
Размер потока : 83,8 Мбайт (5%)
Заголовок : Русский АО (Трамвай-фильм)
Язык : Russian
ServiceKind/String : Complete Main
Default : Да
Forced : Нет
Аудио #2
Идентификатор : 3
Формат : AC-3
Формат/Информация : Audio Coding 3
Коммерческое название : Dolby Digital
Идентификатор кодека : A_AC3
Продолжительность : 1 ч. 1 м.
Вид битрейта : Постоянный
Битрейт : 192 Кбит/сек
Каналы : 2 канала
ChannelLayout : L R
Частота : 48,0 КГц
Частота кадров : 31,250 кадров/сек (1536 SPF)
Метод сжатия : С потерями
Размер потока : 83,8 Мбайт (5%)
Язык : English
ServiceKind/String : Complete Main
Default : Нет
Forced : Нет

Скриншоты














Скринлист

cd Рип дополнительно залит на mail.ru cd2


Last edited by admin on 2014-04-10 21:51; edited 1 time in total
[Profile] [PM]

kosmoaelita

Gender: Male

Longevity: 9 years 1 month

Posts: 1834

Post 25-Aug-2021 08:34 (after 7 years 4 months)

[Quote]

Замена на WEBRip.720p
[Profile] [PM]
Display posts:    
Reply to topic

Current time is: 24-Oct 13:10

All times are UTC + 3



You cannot post new topics in this forum
You cannot reply to topics in this forum
You cannot edit your posts in this forum
You cannot delete your posts in this forum
You cannot vote in polls in this forum
You cannot attach files in this forum
You cannot download files in this forum