Существо с атомным мозгом / Создание с атомным мозгом / Creature with the Atom Brain (Эдвард Л. Кан / Edward L. Cahn) [1955 г., ужасы, фантастика, триллер, криминал, DVDRip] АО (Трамвай-фильм)

Reply to topic
 
Author Message

admin ®

Gender: Male

Longevity: 7 years 7 months

Posts: 4811

Post 10-Apr-2014 01:14

[Quote]

Существо с атомным мозгом / Создание с атомным мозгом / Creature with the Atom Brain
Год выпуска: 1955
Страна: США, Clover Productions
Жанр: ужасы, фантастика, триллер, криминал
Продолжительность: 01:09:11
Перевод: Авторский одноголосый Трамвай-фильм
Режиссер: Эдвард Л. Кан / Edward L. Cahn
В ролях:
Richard Denning ... Dr. Chet Walker
Angela Stevens ... Joyce Walker
S. John Launer ... Capt. Dave Harris
Michael Granger ... Frank Buchanan
Gregory Gaye ... Dr. Wilhelm Steigg (as Gregory Gay)
Linda Bennett ... Penny Walker
Tristram Coffin ... Dist. Atty. MacGraw
Harry Lauter ... Reporter #1
Larry J. Blake ... Reporter #2 (as Larry Blake)
Charles Evans ... Chief Camden
Pierre Watkin ... Mayor Bremer
Описание: Капитан полиции Дейв Харрис и эксперт-криминалист Чет Уолкер ведут расследоване странных убийств, сначала был убит мафиозный босс - Хенесси, затем окружной прокурор МакГроу.
Казалось бы ничего оcобенного, но убийца силен так, что может сломать голыми руками позвоночник и равть железные прутья, его кровь светится и оставляет за собой радиоактивный след...

Качество: DVDRip
Формат: MKV
Видео: x264, 1845 кбит/с, 640x480, 23.976 к/с
Аудио 1: Русский АО (Трамвай) (AC3, 2 ch, 192 Кбит/с)
Аудио 2: Английский (AC3, 2 ch, 192 Кбит/с)
Субтитры : Английские
Работа над релизом:
Рип найден на CG
Синхрон русской дорожки - sasha20072007 (kosmoaelita)
Перевод и озвучка - Трамвай-фильм



Пример русских субтитров

Дополнительно

слоган «He Comes from Beyond the Grave!»
Also Known As (AKA)
(original title) Creature with the Atom Brain
Belgium (Flemish title) De doder met het atoombrein
Belgium (French title) Le tueur au cerveau atomique
Brazil O Cadáver Atômico
Finland Atomiaivoiset olennot
France Le tueur au cerveau atomique
Greece (transliterated ISO-LATIN-1 title) Atomika terata
Italy Banditi atomici
Mexico (poster title) Cadavares Atomicos
Netherlands (informal literal title) Terreur der atoommonsters
Portugal O Monstro do Cérebro Atómico
================================================
Для Украины: рип дополнительно залит в файлохранилище
Рип дополнительно залит на mail.ru
Сравнение: kosmoaelita.com vs. Tramvaj
Для удаления,добавления и извлечения дорожек в mkv используйте бесплатную портативную mkvmerge GUI 6.6.0
Для присоединения потом дорожек к avi воспользуйтесь VirtualDubMod

Отзывы

Рецензия

MediaInfo

Общее
Уникальный идентификатор : 254871142052168488263720883732564040003 (0xBFBE657D5802760C9E211CD714925943)
Полное имя : N:\Creature With the Atom Brain 1955.x264.DVDRip.Rus.kosmoaelita.mkv
Формат : Matroska
Версия формата : Version 4 / Version 2
Размер файла : 1,08 Гбайт
Продолжительность : 1 ч. 9 м.
Общий поток : 2234 Кбит/сек
Название фильма : Creature With the Atom Brain (1955) kosmoaelita
Дата кодирования : UTC 2014-04-09 22:04:44
Программа кодирования : mkvmerge v6.6.0 ('The Edge Of The In Between') built on Dec 7 2013 13:21:48
Библиотека кодирования : libebml v1.3.0 + libmatroska v1.4.1
Attachment : Yes
Видео
Идентификатор : 1
Формат : AVC
Формат/Информация : Advanced Video Codec
Профиль формата : High@L3.1
Параметр CABAC формата : Да
Параметр ReFrames формата : 9 кадров
Идентификатор кодека : V_MPEG4/ISO/AVC
Продолжительность : 1 ч. 9 м.
Битрейт : 1845 Кбит/сек
Ширина : 640 пикселей
Высота : 480 пикселей
Соотношение сторон : 4:3
Режим частоты кадров : Постоянный
Частота кадров : 23,976 кадра/сек
Цветовое пространство : YUV
Субдискретизация насыщенности : 4:2:0
Битовая глубина : 8 бит
Тип развёртки : Прогрессивная
Бит/(Пиксели*Кадры) : 0.250
Размер потока : 894 Мбайт (81%)
Библиотека кодирования : x264 core 133 r2334 a3ac64b
Настройки программы : cabac=1 / ref=9 / deblock=1:0:0 / analyse=0x3:0x133 / me=hex / subme=7 / psy=1 / psy_rd=1.00:0.00 / mixed_ref=1 / me_range=16 / chroma_me=1 / trellis=1 / 8x8dct=1 / cqm=0 / deadzone=21,11 / fast_pskip=1 / chroma_qp_offset=-2 / threads=6 / lookahead_threads=1 / sliced_threads=0 / nr=0 / decimate=1 / interlaced=0 / bluray_compat=0 / constrained_intra=0 / bframes=6 / b_pyramid=2 / b_adapt=1 / b_bias=0 / direct=1 / weightb=1 / open_gop=0 / weightp=2 / keyint=230 / keyint_min=22 / scenecut=40 / intra_refresh=0 / rc_lookahead=40 / rc=2pass / mbtree=1 / bitrate=1845 / ratetol=1.0 / qcomp=0.60 / qpmin=0 / qpmax=69 / qpstep=4 / cplxblur=20.0 / qblur=0.5 / vbv_maxrate=14000 / vbv_bufsize=14000 / nal_hrd=none / ip_ratio=1.40 / aq=1:1.00
Язык : English
Default : Да
Forced : Нет
Аудио #1
Идентификатор : 2
Формат : AC-3
Формат/Информация : Audio Coding 3
Расширение режима : CM (complete main)
Параметр Endianness формата : Big
Идентификатор кодека : A_AC3
Продолжительность : 1 ч. 9 м.
Вид битрейта : Постоянный
Битрейт : 192 Кбит/сек
Каналы : 2 канала
Расположение каналов : Front: L R
Частота : 48,0 КГц
Битовая глубина : 16 бит
Метод сжатия : С потерями
Размер потока : 95,0 Мбайт (9%)
Заголовок : Русский АО (Трамвай-фильм)
Язык : Russian
Default : Да
Forced : Нет
Аудио #2
Идентификатор : 3
Формат : AC-3
Формат/Информация : Audio Coding 3
Расширение режима : CM (complete main)
Параметр Endianness формата : Big
Идентификатор кодека : A_AC3
Продолжительность : 1 ч. 9 м.
Вид битрейта : Постоянный
Битрейт : 192 Кбит/сек
Каналы : 2 канала
Расположение каналов : Front: L R
Частота : 48,0 КГц
Битовая глубина : 16 бит
Метод сжатия : С потерями
Размер потока : 95,0 Мбайт (9%)
Язык : English
Default : Нет
Forced : Нет
Текст
Идентификатор : 4
Формат : VobSub
Режим смешивания : zlib
Идентификатор кодека : S_VOBSUB
Идентификатор кодека/Информация : The same subtitle format used on DVDs
Язык : English
Default : Да
Forced : Нет
Меню
00:00:00.000 : en:Chapter 01
00:07:11.868 : en:Chapter 02
00:13:52.035 : en:Chapter 03
00:18:34.669 : en:Chapter 04
00:26:16.403 : en:Chapter 05
00:31:37.371 : en:Chapter 06
00:37:11.671 : en:Chapter 07
00:42:36.038 : en:Chapter 08
00:47:18.839 : en:Chapter 09
00:53:16.673 : en:Chapter 10
00:58:21.840 : en:Chapter 11
01:04:25.840 : en:Chapter 12
01:09:06.474 : en:Chapter 13

Скриншоты




















cd Рип дополнительно залит на mail.ru cd2


Last edited by admin on 2014-04-10 01:29; edited 3 times in total
[Profile] [PM]

admin ®

Gender: Male

Longevity: 7 years 7 months

Posts: 4811

Post 10-Apr-2014 01:15 (after 1 minute)

[Quote]

Сравнение: kosmoaelita.com vs. Tramvaj
[Profile] [PM]
Display posts:    
Reply to topic

Current time is: 07-Apr 10:54

All times are UTC + 3



You cannot post new topics in this forum
You cannot reply to topics in this forum
You cannot edit your posts in this forum
You cannot delete your posts in this forum
You cannot vote in polls in this forum
You cannot attach files in this forum
You cannot download files in this forum