Невидимка. Хроники Бенджамина Найта / Invisible: The Chronicles of Benjamin Knight / Mandroid 2 (Джек Эрсгард / Jack Ersgard) [1993 г., фантастика, боевик, DVDRip] АО (Л.Володарский)

Reply to topic
 
Author Message

admin ®

Gender: Male

Longevity: 7 years 9 months

Posts: 4799

Post 03-Apr-2014 10:19

[Quote]

Невидимка. Хроники Бенджамина Найта / Invisible: The Chronicles of Benjamin Knight / Mandroid 2
Год выпуска: 1993
Страна: США, Full Moon Entertainment
Жанр: фантастика, боевик
Продолжительность: 01:19:45
Перевод: Авторский одноголосый Л.Володарский (с VHS)
Режиссер: Джек Эрсгард / Jack Ersgard
В ролях:
Brian Cousins ... Wade
Jennifer Nash ... Zanna
Michael Della Femina ... Benjamin
Curt Lowens ... Drago
David Kaufman ... Ryder
Alan Oppenheimer ... Dr. Knox
Aharon Ipalé ... Petroff
Jake McKinnon ... Mandroid
Dana Magdici ... Alexa
Daniela Nane ... Carolyn
Valentin Popescu ... Leonard
Marian Hudac ... Pig Man
Constantin Cotimanis ... Mad Man
Geo Dobre ... Mad Man
Constantin Radoaca ... Mad Man
Описание: Продолжение Mandroida 1993г .
Румыния. Американский ученый Бенджамин Найт в результате несчастного случая во время научного эксперимента становится невидимым. Забинтованный в целях конспирации невидимка Бен пытается найти рецепт спасения от собственной прозрачности вместе со своими коллегами — прикованным к креслу-каталке Уэйдом, миленькой блондинкой Занной и роботом Мандроидом. А в это время Иван Драго со своей бандой похищает одну за другой юных девушек и заточает в темницу. Схватка между двумя командами неизбежна…
cd Mandroid 1 cd2 Качество: DVDRip
Формат: MKV
Видео: x264, 2218 кбит/с, 720x546, 23.976 к/с, crf=18
Аудио 1: Русский АО (Володарский) (AC3, 2 ch, 192 Кбит/с)
Аудио 2: Английский (AC3, 2 ch, 192 Кбит/с)
Работа над релизом:
Рип с ДВД5 с CG и вся работа со звуком - sasha20072007 (kosmoaelita)
Кассетная дорожка находилась в плачевном состоянии, поєтому были выделены русские фразы и наложены на качеств. англ. материал
За русскую дорожку с VHS спасибо alenavova



Пример русской озвучки

Дополнительно

рейтинг MPAA лицам до 17 лет обязательно присутствие взрослого
Also Known As (AKA)
(original title) Invisible: The Chronicles of Benjamin Knight
Finland Näkymättömissä
USA (working title) Mandroid 2
================================================
Для Украины: рип и оригинальный ДВД дополнительно залиты в файлохранилище
Рип дополнительно залит на mail.ru
Сравнение: kosmoaelita.com vs. rutracker
Для удаления,добавления и извлечения дорожек в mkv используйте бесплатную портативную mkvmerge GUI 6.6.0
Для присоединения потом дорожек к avi воспользуйтесь VirtualDubMod

Отзывы

Была когда-то кассетка с этим фильмом, только битая - не пришлось посмотреть. А хотелось ужасно: на обложке стояло возрастное ограничение до 21 (!) года почему-то))..
А вот счас, по зрелому размышлению, не больно и хочеццо то - даже ностальгия не помогает..
---------------------------------------------
Спасибо за раритет.
Потянуло меня недавно на фильмы от FullMoon. Так я даже не ожидал что "Мандроид" и "Невидимый" тоже оказывается их творение. Посмотрю, поностальгирую.

Лог кодирования

MediaInfo

Общее
Уникальный идентификатор : 211982928432874778584571446178352268322 (0x9F7A6D4D0A11FC7DAC3EE2351D510422)
Полное имя : N:\Invisible The Chronicles of Benjamin Knight 1993.x264.DVDRip.Rus.kosmoaelita.mkv
Формат : Matroska
Версия формата : Version 4 / Version 2
Размер файла : 1,45 Гбайт
Продолжительность : 1 ч. 19 м.
Общий поток : 2604 Кбит/сек
Название фильма : Invisible: The Chronicles of Benjamin Knight / 1993 / rip from DVD5 by sasha20072007 (kosmoaelita) (2014-04-03, crf=18
Дата кодирования : UTC 2014-04-03 07:07:50
Программа кодирования : mkvmerge v6.6.0 ('The Edge Of The In Between') built on Dec 7 2013 13:21:48
Библиотека кодирования : libebml v1.3.0 + libmatroska v1.4.1
Attachment : Yes
Видео
Идентификатор : 1
Формат : AVC
Формат/Информация : Advanced Video Codec
Профиль формата : High@L4.1
Параметр CABAC формата : Да
Параметр ReFrames формата : 10 кадров
Идентификатор кодека : V_MPEG4/ISO/AVC
Продолжительность : 1 ч. 19 м.
Битрейт : 2218 Кбит/сек
Ширина : 720 пикселей
Высота : 546 пикселей
Соотношение сторон : 4:3
Режим частоты кадров : Постоянный
Частота кадров : 23,976 кадра/сек
Цветовое пространство : YUV
Субдискретизация насыщенности : 4:2:0
Битовая глубина : 8 бит
Тип развёртки : Прогрессивная
Бит/(Пиксели*Кадры) : 0.235
Размер потока : 1,21 Гбайт (83%)
Заголовок : Релиз www.kosmoaelita.com
Библиотека кодирования : x264 core 130 r2273 b3065e6
Настройки программы : cabac=1 / ref=10 / deblock=1:-2:-2 / analyse=0x3:0x133 / me=umh / subme=11 / psy=1 / psy_rd=0.99:0.14 / mixed_ref=1 / me_range=24 / chroma_me=1 / trellis=2 / 8x8dct=1 / cqm=0 / deadzone=21,11 / fast_pskip=1 / chroma_qp_offset=-3 / threads=6 / lookahead_threads=1 / sliced_threads=0 / nr=0 / decimate=1 / interlaced=0 / bluray_compat=0 / constrained_intra=0 / bframes=10 / b_pyramid=2 / b_adapt=2 / b_bias=0 / direct=3 / weightb=1 / open_gop=0 / weightp=2 / keyint=240 / keyint_min=23 / scenecut=40 / intra_refresh=0 / rc_lookahead=60 / rc=2pass / mbtree=1 / bitrate=2218 / ratetol=1.0 / qcomp=0.63 / qpmin=0 / qpmax=69 / qpstep=4 / cplxblur=20.0 / qblur=0.5 / ip_ratio=1.25 / aq=1:0.90
Default : Да
Forced : Нет
Основные цвета : BT.601 NTSC
Характеристики трансфера : BT.601
Коэффициенты матрицы : BT.601
Аудио #1
Идентификатор : 2
Формат : AC-3
Формат/Информация : Audio Coding 3
Расширение режима : CM (complete main)
Параметр Endianness формата : Big
Идентификатор кодека : A_AC3
Продолжительность : 1 ч. 19 м.
Вид битрейта : Постоянный
Битрейт : 192 Кбит/сек
Каналы : 2 канала
Расположение каналов : Front: L R
Частота : 48,0 КГц
Битовая глубина : 16 бит
Метод сжатия : С потерями
Размер потока : 110 Мбайт (7%)
Заголовок : Русский АО (Володарский) с VHS
Язык : Russian
Default : Да
Forced : Нет
Аудио #2
Идентификатор : 3
Формат : AC-3
Формат/Информация : Audio Coding 3
Расширение режима : CM (complete main)
Параметр Endianness формата : Big
Идентификатор кодека : A_AC3
Продолжительность : 1 ч. 19 м.
Вид битрейта : Постоянный
Битрейт : 192 Кбит/сек
Каналы : 2 канала
Расположение каналов : Front: L R
Частота : 48,0 КГц
Битовая глубина : 16 бит
Метод сжатия : С потерями
Размер потока : 110 Мбайт (7%)
Язык : English
Default : Нет
Forced : Нет
Меню
00:09:27.066 : en:00:09:27.066
00:22:01.821 : en:00:22:01.821
00:30:09.307 : en:00:30:09.307
00:39:45.383 : en:00:39:45.383
00:49:44.482 : en:00:49:44.482
00:59:04.541 : en:00:59:04.541
01:08:51.127 : en:01:08:51.127
01:16:33.589 : en:01:16:33.589
01:19:44.914 : en:01:19:44.914

Скриншоты














cd Рип дополнительно залит на mail.ru cd2


Last edited by admin on 2014-04-06 14:56; edited 6 times in total
[Profile] [PM]

admin ®

Gender: Male

Longevity: 7 years 9 months

Posts: 4799

Post 03-Apr-2014 10:28 (after 8 minutes)

[Quote]

Сравнение: kosmoaelita.com vs. rutracker
[Profile] [PM]
Display posts:    
Reply to topic

Current time is: 04-Jun 21:36

All times are UTC + 3



You cannot post new topics in this forum
You cannot reply to topics in this forum
You cannot edit your posts in this forum
You cannot delete your posts in this forum
You cannot vote in polls in this forum
You cannot attach files in this forum
You cannot download files in this forum