Разрушительница / The Demolitionist (Роберт Куртцман / Robert Kurtzman) [1995 г., Фантастика, боевик, триллер, BDRip-1080p] ПД (Екатеринбург Арт Home Video)

Reply to topic
 
Author Message

admin ®

Gender: Male

Longevity: 7 years 7 months

Posts: 4811

Post 26-Mar-2014 17:05

[Quote]

Разрушительница / The Demolitionist
Год выпуска: 1995
Страна: США, A-Pix Entertainment Inc., Le Monte Entertainment, Planet Productions
Жанр: Фантастика, боевик, триллер
Продолжительность: 01:32:58
Перевод: Профессиональный (двухголосый) (Екатеринбург Арт Home Video (VHS))
Режиссер: Роберт Куртцман / Robert Kurtzman
В ролях: Nicole Eggert ... Alyssa Lloyd
Bruce Abbott ... Prof. Jack Crowley
Susan Tyrrell ... Mayor Eleanor Grimbaum
Peter Jason ... Higgins
Sarah Douglas ... Surgeon
Andras Jones ... Daniel Dupre
Heather Langenkamp ... Christy Carruthers
David Anthony Marshall ... One Eye
Richard Grieco ... Mad Dog Burne
Randy Vasquez ... Little Henry Burne
Yvonne M. Cohrs ... Mall Patron #1
Christopher Thunderwolf ... Mall Patron #2
Jack Nance ... Father McKenzie
Chris Cowell ... Executioner
Joseph Pilato ... Boxer (as Josef Pilato)
Описание: Действие этого женского варианта "Робокопа" происходит в неопределенном будущем. Из тюрьмы прямо во время собственной казни сбежал опаснейший преступник Грико, возглавляющий разгул преступности в городе. Он убивает следившую за ним симпатичную блондинку-полицейскую, но ученый дал ей новую жизнь в экспериментальном проекте "Лазарь". Мстительница, или разрушительница — так правильней перевести название фильма с английского — проходит тренировки и... Впрочем дальше любители боевиков пусть смотрят сами. Неплохие спецэффекты
Качество: BDRip-1080p
Формат: MKV
Видео: x264, 6535 Кбит/сек, 1920x1080, 24 к/с, crf=18
Аудио 1: Русский GL (Екатеринбург Арт) (AC3, 2 ch, 224 Кбит/с)
Аудио 2: Английский (AC3, 6 ch, 448 Кбит/с)
Аудио 2: Английский (AC3, 2 ch, 192 Кбит/с)
Аудио 2: Немецкий (AC3, 6 ch, 448 Кбит/с)
Аудио 2: Немецкий (AC3, 2 ch, 192 Кбит/с)
Аудио 2: Английский Comment (AC3, 2 ch, 192 Кбит/с)
Субтитры : Немецкие
Работа над релизом:
Рип с немецкого BD25 - sasha20072007 (kosmoaelita) crf=18



Пример русской озвучки

Редкое 15-минутное видео о съёмках фильма

Дополнительно

слоган «Hell Has No Fury...Like A Woman Transformed»
бюджет $1 000 000
Also Known As (AKA) (original title) The Demolitionist
Spain Policia de acero
Finland Hävittäjä
France (video title) Demolitionist
France (TV title) Justice à Metro City
Greece (video title) O katastrofeas
Venezuela La demoledora
================================================
Для Украины: рип и оригинальный BD-25 дополнительно залиты в файлохранилище
Рип дополнительно залит на mail.ru
Для удаления,добавления и извлечения дорожек в mkv используйте бесплатную портативную mkvmerge GUI 6.6.0
Для присоединения потом дорожек к avi воспользуйтесь VirtualDubMod

Отзывы

Собрался я однажды посмотреть это кино. Была полночь, глаза слипались и я заснул перед телевизором, единственный раз за всю жизнь.
И вот, восемь лет спустя, в поисках названия фильма, частично отсмотренного тем же летом 2001, нашел архив программы передач. Увидел смутно знакомое название, вспомнил как заснул тогда...
Неплохой фильм, кстати говоря. Не шедевр, но если не придираться к мелочам, то очень даже хорошо смотрится.
-----------------------------------
В 90-х была у меня кассета с этим фильмом, написано было "Универсальный солдат + Робокоп = Разрушительница" . Надо теперь пересмотреть
---------------------------------------
Как это с робокопом можно было сравнить? В детстве упустил возможность посмотреть кино, но образ с обложки запомнился. и вот удалось: но осталось только разочарование. убогий боевичок с ляпами на каждой минуте. Сценарий примитивен, такие используют девочки, когда в куклы играют или мальчики в солдатиков.
------------------------------------------------
Спасибо! В школьные годы балдел от этого фильма! Жаль, что продолжения не последовало.

Рецензия

Редкостная хрень, снятая за миллион баксов с рейтингом R, который заключается в тупой стрельбе как в самых дешевых боевиках, да паре полуголых стриптизерш вначале…
Сюжет похож на Робокопа. Только вместо него Николь Эггерт, которая тут сама на себя не похожа. Жалкие попытки добавить немного драматизма и историю любви — ни к чему не приводят. Совершенно не убедительно.
Всё что можно взять отсюда — это образ Николь в доспехах от роликовых коньков с забралом и два наручных пистолета-автомата из которых она бестолково палит. К слову эти автоматы в дальнейшем будут использованы в культовой игре fallout…

Лог кодирования

MediaInfo

Общее
Уникальный идентификатор : 186744415527109059126742774863786884879 (0x8C7DAA8AD7CB343B8818EAD137333F0F)
Полное имя : N:\The Demolitionist 1995.x264.BDRip.1080p.kosmoaelita.mkv
Формат : Matroska
Версия формата : Version 4 / Version 2
Размер файла : 5,50 Гбайт
Продолжительность : 1 ч. 32 м.
Общий поток : 8463 Кбит/сек
Название фильма : The Demolitionist / 1995 / rip from BD25 by sasha20072007 (kosmoaelita) (2014-03-25, crf=18
Дата кодирования : UTC 2014-03-26 02:34:43
Программа кодирования : mkvmerge v6.6.0 ('The Edge Of The In Between') built on Dec 7 2013 13:21:48
Библиотека кодирования : libebml v1.3.0 + libmatroska v1.4.1
Attachment : Yes / Yes
Видео
Идентификатор : 1
Формат : AVC
Формат/Информация : Advanced Video Codec
Профиль формата : High@L4.1
Параметр CABAC формата : Да
Параметр ReFrames формата : 5 кадров
Идентификатор кодека : V_MPEG4/ISO/AVC
Продолжительность : 1 ч. 32 м.
Битрейт : 6535 Кбит/сек
Ширина : 1920 пикселей
Высота : 1080 пикселей
Соотношение сторон : 16:9
Режим частоты кадров : Постоянный
Частота кадров : 24,000 кадра/сек
Цветовое пространство : YUV
Субдискретизация насыщенности : 4:2:0
Битовая глубина : 8 бит
Тип развёртки : Прогрессивная
Бит/(Пиксели*Кадры) : 0.131
Размер потока : 4,24 Гбайт (77%)
Библиотека кодирования : x264 core 130 r2273 b3065e6
Настройки программы : cabac=1 / ref=5 / deblock=1:-2:-2 / analyse=0x3:0x133 / me=umh / subme=11 / psy=1 / psy_rd=0.99:0.14 / mixed_ref=1 / me_range=32 / chroma_me=1 / trellis=2 / 8x8dct=1 / cqm=0 / deadzone=21,11 / fast_pskip=1 / chroma_qp_offset=-3 / threads=6 / lookahead_threads=1 / sliced_threads=0 / nr=0 / decimate=1 / interlaced=0 / bluray_compat=0 / constrained_intra=0 / bframes=10 / b_pyramid=2 / b_adapt=2 / b_bias=0 / direct=1 / weightb=1 / open_gop=0 / weightp=2 / keyint=240 / keyint_min=23 / scenecut=40 / intra_refresh=0 / rc_lookahead=60 / rc=crf / mbtree=1 / crf=18.0 / qcomp=0.63 / qpmin=0 / qpmax=69 / qpstep=4 / ip_ratio=1.25 / aq=1:0.90
Default : Да
Forced : Нет
Основные цвета : BT.709
Характеристики трансфера : BT.709
Коэффициенты матрицы : BT.709
Аудио #1
Идентификатор : 2
Формат : AC-3
Формат/Информация : Audio Coding 3
Расширение режима : CM (complete main)
Параметр Endianness формата : Big
Идентификатор кодека : A_AC3
Продолжительность : 1 ч. 32 м.
Вид битрейта : Постоянный
Битрейт : 224 Кбит/сек
Каналы : 2 канала
Расположение каналов : Front: L R
Частота : 48,0 КГц
Битовая глубина : 16 бит
Метод сжатия : С потерями
Размер потока : 149 Мбайт (3%)
Заголовок : Русский ПД (Екатеринбург Арт Home Video)
Язык : Russian
Default : Да
Forced : Нет
Аудио #2
Идентификатор : 3
Формат : AC-3
Формат/Информация : Audio Coding 3
Расширение режима : CM (complete main)
Параметр Endianness формата : Big
Идентификатор кодека : A_AC3
Продолжительность : 1 ч. 32 м.
Вид битрейта : Постоянный
Битрейт : 448 Кбит/сек
Каналы : 6 каналов
Расположение каналов : Front: L C R, Side: L R, LFE
Частота : 48,0 КГц
Битовая глубина : 16 бит
Метод сжатия : С потерями
Размер потока : 298 Мбайт (5%)
Заголовок : English 448 kbps 5.1 / 48 kHz / 448 kbps / DN -4dB
Язык : English
Default : Нет
Forced : Нет
Аудио #3
Идентификатор : 4
Формат : AC-3
Формат/Информация : Audio Coding 3
Расширение режима : CM (complete main)
Параметр Endianness формата : Big
Идентификатор кодека : A_AC3
Продолжительность : 1 ч. 32 м.
Вид битрейта : Постоянный
Битрейт : 224 Кбит/сек
Каналы : 2 канала
Расположение каналов : Front: L R
Частота : 48,0 КГц
Битовая глубина : 16 бит
Метод сжатия : С потерями
Размер потока : 149 Мбайт (3%)
Заголовок : English 224 kbps 2.0 / 48 kHz / 224 kbps
Язык : English
Default : Нет
Forced : Нет
Аудио #4
Идентификатор : 5
Формат : AC-3
Формат/Информация : Audio Coding 3
Расширение режима : CM (complete main)
Параметр Endianness формата : Big
Идентификатор кодека : A_AC3
Продолжительность : 1 ч. 32 м.
Вид битрейта : Постоянный
Битрейт : 448 Кбит/сек
Каналы : 6 каналов
Расположение каналов : Front: L C R, Side: L R, LFE
Частота : 48,0 КГц
Битовая глубина : 16 бит
Метод сжатия : С потерями
Размер потока : 298 Мбайт (5%)
Заголовок : German 5.1 / 48 kHz / 448 kbps / DN -4dB
Язык : German
Default : Нет
Forced : Нет
Аудио #5
Идентификатор : 6
Формат : AC-3
Формат/Информация : Audio Coding 3
Расширение режима : CM (complete main)
Параметр Endianness формата : Big
Идентификатор кодека : A_AC3
Продолжительность : 1 ч. 32 м.
Вид битрейта : Постоянный
Битрейт : 224 Кбит/сек
Каналы : 2 канала
Расположение каналов : Front: L R
Частота : 48,0 КГц
Битовая глубина : 16 бит
Метод сжатия : С потерями
Размер потока : 149 Мбайт (3%)
Заголовок : German 224 kbps 2.0 / 48 kHz / 224 kbps
Язык : German
Default : Нет
Forced : Нет
Аудио #6
Идентификатор : 7
Формат : AC-3
Формат/Информация : Audio Coding 3
Расширение режима : CM (complete main)
Параметр Endianness формата : Big
Идентификатор кодека : A_AC3
Продолжительность : 1 ч. 32 м.
Вид битрейта : Постоянный
Битрейт : 192 Кбит/сек
Каналы : 2 канала
Расположение каналов : Front: L R
Частота : 48,0 КГц
Битовая глубина : 16 бит
Метод сжатия : С потерями
Размер потока : 128 Мбайт (2%)
Заголовок : Comment
Язык : English
Default : Нет
Forced : Нет
Текст #1
Идентификатор : 8
Формат : PGS
Режим смешивания : zlib
Идентификатор кодека : S_HDMV/PGS
Идентификатор кодека/Информация : The same subtitle format used on BDs/HD-DVDs
Язык : German
Default : Нет
Forced : Нет
Текст #2
Идентификатор : 9
Формат : PGS
Режим смешивания : zlib
Идентификатор кодека : S_HDMV/PGS
Идентификатор кодека/Информация : The same subtitle format used on BDs/HD-DVDs
Язык : German
Default : Нет
Forced : Нет
Меню
00:00:00.000 : en:Chapter 01
00:00:00.375 : en:Chapter 02
00:12:35.875 : en:Chapter 03
00:20:37.291 : en:Chapter 04
00:31:58.583 : en:Chapter 05
00:40:41.291 : en:Chapter 06
00:52:52.958 : en:Chapter 07
01:06:14.458 : en:Chapter 08
01:17:31.000 : en:Chapter 09

Скриншоты










cd Рип дополнительно залит на облако mail.ru cd2
[Profile] [PM]
Display posts:    
Reply to topic

Current time is: 02-Apr 07:23

All times are UTC + 3



You cannot post new topics in this forum
You cannot reply to topics in this forum
You cannot edit your posts in this forum
You cannot delete your posts in this forum
You cannot vote in polls in this forum
You cannot attach files in this forum
You cannot download files in this forum