Космический пират Харлок / Space Pirate Captain Harlock / Uchu Kaizoku Kyaputen Harokku (Синдзи Арамаки / Shinji Aramaki) [2013 г., Приключения, фантастика, боевик, BDRip-1080p] СТ (Abliarsar)

Reply to topic
 
Author Message

admin ®

Gender: Male

Longevity: 6 years 11 months

Posts: 4725

Location: Україна

Post 12-Mar-2014 00:37

[Quote]

Космический пират Харлок / Space Pirate Captain Harlock / Uchu Kaizoku Kyaputen Harokku
Год выпуска: 2013
Страна: Япония, Toei Animation Company
Жанр: Приключения, фантастика, боевик, мультфильм
Продолжительность: 01:55:06
Перевод: Субтитры Abliarsar
Режиссер: Синдзи Арамаки / Shinji Aramaki
В ролях:
Yû Aoi ... Miime (voice)
Ayano Fukuda ... Tori-san (voice)
Arata Furuta ... Yattaran (voice)
Kiyoshi Kobayashi ... Roujin (voice)
Haruma Miura ... Yama (voice)
Toshiyuki Morikawa ... Isora (voice)
Shun Oguri ... Captain Harlock (voice)
Chikao Ohtsuka ... Soukan (voice)
Maaya Sakamoto ... Nami (voice)
Miyuki Sawashiro ... Kei (voice)
Описание: Далекое будущее. Преступная корпорация Гайя стала злейшим врагом Земли, отобрав у людей все: свободу, дом, будущее… Казалось, что надежды на спасение нет… Но, появился Он — космический пират Харлок, капитан призрачного корабля Аркадия. Беглец, готовый сражаться за Землю. Кто Он, герой или преступник?..
Качество: BDRip-1080p
Формат: MKV
Видео: x264, 7500 кбит/с, 1920x804, 23.976 к/с
Аудио 2: Японский (DTS, 6 ch, 1509 Кбит/с)
Субтитры : Русские (Abliarsar), английские
Работа над релизом:
За русские субтитры спасибо
Команда Lakfakalle
Перевод: Abliarsar
Редактирование: Cynda



Русский трейлер

Дополнительно

слоган «Is he an enemy of the state... or its last hope?»
бюджет $30 000 000
Also Known As (AKA)
(original title) Space Pirate Captain Harlock
France Albator, corsaire de l'espace
Italy Capitan Harlock
Japan (alternative transliteration) Harlock Space Pirate
Sweden Harlock: Space Pirate
================================================
Для Украины: рип дополнительно залит в файлохранилище
Рип дополнительно залит на mail.ru
Для удаления,добавления и извлечения дорожек в mkv используйте бесплатную портативную mkvmerge GUI 6.6.0
Для присоединения потом дорожек к avi воспользуйтесь VirtualDubMod

Знаете ли вы, что...

В основе анимационного фильма — культовые комиксы «Космический пират капитан Харлок», которые публиковались в журнале «Play Comic» (1977-1979).
Международная прокатная версия подготовлена с участием США и Франции.
Картина получила награду базирующегося в США Международного общества 3D-технологий и передовых визуальных эффектов (The International 3D & Advanced Imaging Society) как лучший анимационный проект на международной арене.
Продолжительность японской версии — 115 минут.
Комикс-франшиза «Космический пират Харлок» имеет фан-клубы по всему миру и входит в пятерку самых популярных комиксов всех времен наряду со «Звездными войнами» и «Стартреком».
спойлерошибка«Космический пират Харлок в 3D» — самая технически сложная и совершенная анимационная версия приключений легендарного героя. Так, при создании персонажей использовалась технология захвата движения.
Режиссер Джеймс Кэмерон после просмотра фильма так прокомментировал увиденное: «Масштабно, грандиозно и визуально беспрецедентно. «Харлок» опережает время, поражая воображение».

Отзывы

Для неяпонцев японские экранизации аниме просто убийственны. Корейцам бы хоть на аутсорсинг отдавали.
--------------------

Рецензия

MediaInfo

Общее
Уникальный идентификатор : 207825460417588550101044506505581077411 (0x9C59BA4D53EFE751B690A184618EA3A3)
Полное имя : N:\Space.Pirate.Captain.Harlock.2013.BDRip.1080p.mkv
Формат : Matroska
Версия формата : Version 4 / Version 2
Размер файла : 7,25 Гбайт
Продолжительность : 1 ч. 55 м.
Общий поток : 9021 Кбит/сек
Название фильма : Jubowo @ WiKi
Дата кодирования : UTC 2014-03-10 16:52:29
Программа кодирования : mkvmerge v6.8.0 ('Theme for Great Cities') 64bit built on Mar 2 2014 21:34:26
Библиотека кодирования : libebml v1.3.0 + libmatroska v1.4.1
Attachment : Yes
Видео
Идентификатор : 1
Формат : AVC
Формат/Информация : Advanced Video Codec
Профиль формата : High@L4.1
Параметр CABAC формата : Да
Параметр ReFrames формата : 5 кадров
Идентификатор кодека : V_MPEG4/ISO/AVC
Продолжительность : 1 ч. 55 м.
Битрейт : 7500 Кбит/сек
Ширина : 1920 пикселей
Высота : 804 пикселя
Соотношение сторон : 2,40:1
Режим частоты кадров : Постоянный
Частота кадров : 23,976 кадра/сек
Цветовое пространство : YUV
Субдискретизация насыщенности : 4:2:0
Битовая глубина : 8 бит
Тип развёртки : Прогрессивная
Бит/(Пиксели*Кадры) : 0.203
Размер потока : 5,90 Гбайт (81%)
Библиотека кодирования : x264 core 129 r2245+704+36 8e61944 tMod+MixAQ [8-bit@4:2:0 X86_64]
Настройки программы : cabac=1 / ref=5 / deblock=1:-1:-1 / analyse=0x3:0x133 / me=umh / subme=11 / psy=1 / fade_compensate=0.00 / psy_rd=0.60:0.00 / mixed_ref=1 / me_range=64 / chroma_me=1 / trellis=2 / 8x8dct=1 / cqm=0 / deadzone=21,11 / fast_pskip=0 / chroma_qp_offset=-2 / threads=18 / lookahead_threads=3 / sliced_threads=0 / nr=0 / decimate=0 / interlaced=0 / bluray_compat=0 / constrained_intra=0 / fgo=0 / bframes=10 / b_pyramid=2 / b_adapt=2 / b_bias=0 / direct=3 / weightb=1 / open_gop=0 / weightp=2 / keyint=250 / keyint_min=23 / scenecut=40 / intra_refresh=0 / rc=2pass / mbtree=0 / bitrate=7500 / ratetol=1.0 / qcomp=0.70 / qpmin=0 / qpmax=69 / qpstep=4 / cplxblur=20.0 / qblur=0.5 / ip_ratio=1.40 / pb_ratio=1.30 / aq=3 / aq-strength=0.95 / aq-sensitivity=10.00 / aq-ifactor=1.00 / aq-pfactor=1.00 / aq-bfactor=1.00 / aq2=0
Язык : Japanese
Default : Да
Forced : Нет
Аудио
Идентификатор : 2
Формат : DTS
Формат/Информация : Digital Theater Systems
Режим : 16
Параметр Endianness формата : Big
Идентификатор кодека : A_DTS
Продолжительность : 1 ч. 55 м.
Вид битрейта : Постоянный
Битрейт : 1509 Кбит/сек
Каналы : 6 каналов
Расположение каналов : Front: L C R, Side: L R, LFE
Частота : 48,0 КГц
Битовая глубина : 24 бит
Метод сжатия : С потерями
Размер потока : 1,21 Гбайт (17%)
Язык : Japanese
Default : Да
Forced : Нет
Текст #1
Идентификатор : 3
Формат : ASS
Идентификатор кодека : S_TEXT/ASS
Идентификатор кодека/Информация : Advanced Sub Station Alpha
Метод сжатия : Без потерь
Язык : Russian
Default : Да
Forced : Нет
Текст #2
Идентификатор : 4
Формат : UTF-8
Идентификатор кодека : S_TEXT/UTF8
Идентификатор кодека/Информация : UTF-8 Plain Text
Язык : English
Default : Нет
Forced : Нет
Меню
00:00:00.000 : en:00:00:00.000
00:02:00.453 : en:00:02:00.453
00:07:42.920 : en:00:07:42.920
00:14:16.897 : en:00:14:16.897
00:18:00.120 : en:00:18:00.120
00:24:02.315 : en:00:24:02.315
00:30:51.349 : en:00:30:51.349
00:40:31.053 : en:00:40:31.053
00:43:42.411 : en:00:43:42.411
00:49:21.500 : en:00:49:21.500
00:54:03.365 : en:00:54:03.365
01:06:38.244 : en:01:06:38.244
01:21:25.422 : en:01:21:25.422
01:23:40.557 : en:01:23:40.557
01:36:55.726 : en:01:36:55.726
01:41:41.512 : en:01:41:41.512
01:47:42.456 : en:01:47:42.456

Пример субтитров

Скриншоты







cd Рип дополнительно залит на облако mail.ru cd2 премьера (РФ) 15 мая 2014, «Централ Партнершип»
[Profile] [PM]

Guest

Gender: Unknown

Post 12-Mar-2014 00:39 (after 2 minutes)

[Quote]

Сетевой торрент
 
Display posts:    
Reply to topic

Current time is: 21-Aug 01:39

All times are UTC + 3



You cannot post new topics in this forum
You cannot reply to topics in this forum
You cannot edit your posts in this forum
You cannot delete your posts in this forum
You cannot vote in polls in this forum
You cannot attach files in this forum
You cannot download files in this forum