Инопланетное семя / Alien Seed (Боб Джеймс / Bob James) [1989 г., Фантастика, DVDRip] АО (с VHS)

Reply to topic
DL-List and Torrent activity
Size:  765 MB   |    Registered:  6 years 6 months   |    Completed:  12 times

Seeder not seen: 3 months 5 days

 
   
 
 
 
Author Message

admin ®

Gender: Male

Longevity: 8 years

Posts: 4794

Post 11-Mar-2014 23:58

[Quote]

Инопланетное семя / Alien Seed
Год выпуска: 1989
Страна: США, Action International Pictures (A.I.P.)
Жанр: Фантастика
Продолжительность: 01:27:56
Перевод: Авторский одноголосый c VHS
Режиссер: Боб Джеймс / Bob James
В ролях:
Erik Estrada ... Dr. Stone
Heidi Paine ... Lisa Jordan
Steven Blade ... Mark Timmons
Shellie Block ... Mary Jordan
David Hayes ... Rev. Bolam
Terry Phillips ... Gen. Dole
Steve Gellman ... Maj. Wilson
Ben Mardel ... Dr. Gabriel
Nick Grizzly ... Heavy #1
Jodi Blunt ... Coach Day's girlfriend
Bob Mueller ... Officer Jim Davis
Marilyn Garman ... Bolam's Secretary
Leigh Opitz ... Alien #1
Tim Woolridge ... Alien #3
Bruce Detlot ... Alien #4
Описание: Мэри Джордан, невинная 18-летняя студентка, обнаруживает, что она загадочным образом беременна после необъяснимого одиннадцатичасового исчезновения в глухой сельской местности. Расследование постепенно приоткрывает завесу над планом инопланетян по появлению "мессии", которому уготована роль спасения человечества от грехов. MJ-12, секретная правительственная организация, изучающая НЛО, пытаеется похитить Мэри и использовать ребенка в своих целях. Но доктор Стоун старается любой ценой не допустить его рождения. Когда Мэри убивают, её сестра клянётся отомстить, что оборачивается для неё лишь тем, что она становится ей заменой...
Качество: DVDRip
Формат: MKV
Видео: XviD, 915 кбит/с, 640x480, 23.976 к/с
Аудио 1: Русский АО (AC3, 2 ch, 192 Кбит/с)
Аудио 2: Английский (AC3, 1 ch, 192 Кбит/с)
Работа над релизом:
Англоязычный DVDRip - из раздачи mmxxiii с CG
Оцифровка с VHS русской аудиодорожки - Nekontroliruemij_devil
Синхр. и частичная реставрация русской дорожки - kosmoaelita



С русским переводом

Трейлер

Дополнительно

слоган «They invaded the planet... And violated our women! Can the alien invasion be stopped?!»
Also Known As (AKA)
(original title) Alien Seed
Poland Nasienie z kosmosu
Poland Obce nasienie
================================================

Отзывы

Опять похотливые пришельцы со своими анальными экспериментами... Что характерно, никто никогда не придумает сюжет где жертвой этих экспериментов станет блохастый бородатый бомж, чьё счастливое существование на местной помойке безжалостно оборвалось коварным щупальцем чужеродной формы жизни, плотно утрамбованным в зопух... Всё невинных 18-летних студенток 90х60х90 им подавай. Оборзели инопланетные изуверы!

MediaInfo

Общее
Уникальный идентификатор : 243304489027175499696071441991892863229 (0xB70ABD7755406E299D266A9EC59208FD)
Полное имя : N:\BD-DISC\Alien Seed [1989] by Bob James [R2 DE]\VIDEO_TS\Новая папка\Alien Seed 1989.XviD.DVDrip.Rus.Eng.kosmoaelita.mkv
Формат : Matroska
Версия формата : Version 4
Размер файла : 818 Мбайт
Продолжительность : 1 ч. 27 м.
Общий поток : 1300 Кбит/сек
Дата кодирования : UTC 2019-12-06 04:12:05
Программа кодирования : mkvmerge v6.6.0 ('The Edge Of The In Between') built on Dec 1 2013 17:55:00
Библиотека кодирования : libebml v1.3.0 + libmatroska v1.4.1
Attachments : poster.jpg
Видео
Идентификатор : 1
Формат : MPEG-4 Visual
Профиль формата : Simple@L3
Настройки формата : BVOP1 / Custom Matrix
Параметр BVOP формата : 1
Параметр QPel формата : Нет
Параметр GMC формата : Без точки перехода
Параметр матрицы формата : Выборочная
Идентификатор кодека : V_MS/VFW/FOURCC / XVID
Идентификатор кодека/Подсказка : XviD
Продолжительность : 1 ч. 27 м.
Битрейт : 891 Кбит/сек
Ширина : 640 пикселей
Высота : 480 пикселей
Соотношение сторон : 4:3
Режим частоты кадров : Постоянный
Частота кадров : 23,976 (23976/1000) кадра/сек
Цветовое пространство : YUV
Субдискретизация насыщенности : 4:2:0
Битовая глубина : 8 бит
Тип развёртки : Прогрессивная
Метод сжатия : С потерями
Бит/(Пиксели*Кадры) : 0.121
Размер потока : 560 Мбайт (68%)
Библиотека кодирования : XviD 1.1.0 Beta2 (UTC 2005-04-04)
Default : Да
Forced : Нет
Аудио #1
Идентификатор : 2
Формат : AC-3
Формат/Информация : Audio Coding 3
Коммерческое название : Dolby Digital
Идентификатор кодека : A_AC3
Продолжительность : 1 ч. 27 м.
Вид битрейта : Постоянный
Битрейт : 192 Кбит/сек
Каналы : 2 канала
ChannelLayout : L R
Частота : 48,0 КГц
Частота кадров : 31,250 кадров/сек (1536 SPF)
Метод сжатия : С потерями
Размер потока : 121 Мбайт (15%)
Язык : Russian
ServiceKind/String : Complete Main
Default : Да
Forced : Нет
Аудио #2
Идентификатор : 3
Формат : AC-3
Формат/Информация : Audio Coding 3
Коммерческое название : Dolby Digital
Идентификатор кодека : A_AC3
Продолжительность : 1 ч. 27 м.
Вид битрейта : Постоянный
Битрейт : 192 Кбит/сек
Каналы : 1 канал
ChannelLayout : C
Частота : 48,0 КГц
Частота кадров : 31,250 кадров/сек (1536 SPF)
Метод сжатия : С потерями
Размер потока : 121 Мбайт (15%)
ServiceKind/String : Complete Main
Default : Нет
Forced : Нет

Скриншоты












Скринлист

cd Рип дополнительно залит на облако mail.ru cd2
Alien.Seed.1989.DVDrip.XviD.Rus,Eng.avi.torrent
 GOLD TORRENT! DOWNLOAD TRAFFIC DOES NOT CONSIDER! 
Torrent: Registered [ 2014-03-11 23:58 ]

Download .torrent

Download

16 KB

Status: checked
Completed: 12 times
Size: 765 MB
 


Last edited by admin on 2019-12-06 16:52; edited 10 times in total
[Profile] [PM]

admin ®

Gender: Male

Longevity: 8 years

Posts: 4794

Post 11-Mar-2014 23:58 (after 50 seconds)

[Quote]

Сетевой торрент
[Profile] [PM]
Display posts:    
Reply to topic

Current time is: 01-Oct 00:52

All times are UTC + 3



You cannot post new topics in this forum
You cannot reply to topics in this forum
You cannot edit your posts in this forum
You cannot delete your posts in this forum
You cannot vote in polls in this forum
You cannot attach files in this forum
You can download files in this forum