Проект НЛО / Project U.F.O. / Project Blue Book / Project UFO (Джек Уэбб / Jack Webb) [1978-79 г г., Фантастика, VHSRip] АО (Трамвай-фильм)

Reply to topic
 
Author Message

admin ®

Gender: Male

Longevity: 9 years 8 months

Posts: 4694

Post 04-Mar-2014 00:32

[Quote]

Проект НЛО / Project U.F.O. / Project Blue Book / Project UFO
Год выпуска: 1978-79гг
Страна: США
Жанр: Фантастика
Продолжительность: 26 х ~00:48:00
Перевод: Авторский одноголосый Трамвай-фильм
Режиссер: Джек Уэбб / Jack Webb
В ролях:
Caskey Swaim ... Staff Sergeant Harry Fitz (26 episodes, 1978-1979)
Edward Winter ... Captain Ben Ryan / ... (14 episodes, 1978-1979)
William Jordan ... Major Jake Gatlin (13 episodes, 1978)
Описание: За 20 лет, с момента создания американской правительственной программы "Синяя книга" в небе над миром наблюдались тысячи случаев появления Н.Л.О.
Расследованием таких происшествий занимаются герои серила: Майора Джека Гетлена во втором сезоне заменил капитан Райан

Качество: VHSRip
Формат: MKV
Видео: xviD, 1300 кбит/с, 640x480, 29.97 к/с
Аудио 1: Русский АО (Трамвай-фильм)(AC3, 2 ch, 192 Кбит/с)
Аудио 2: Английский (AC3, 2 ch, 192 Кбит/с)
Работа над релизом:
Релиз croMAG
Перевод и озвучивание Трамвай-фильм За что ему респект
1 сезон
Работа со звуком серия 1 redfoxalise
серия 2 -5, 8-11 Kontr
серия 6 -7, 12-13 Silverbeast
Работа с видео croMAG
2 сезон
Работа со звуком серия 1,9-13 Silverbeast серия 2-8 kontr
Релиз специально для treckera.net



Пример русской озвучки

Дополнительно

================================================
Для Украины: рипы дополнительно залиты в файлохранилище
Рип дополнительно залит на mail.ru
Для удаления,добавления и извлечения дорожек в mkv используйте бесплатную портативную mkvmerge GUI 6.6.0
Для присоединения потом дорожек к avi воспользуйтесь VirtualDubMod

Примечание и заметки переводчика

10-я серия
ну-во первых, тут, как и большинстве серий. 2 истории
Первая про "волосы ангела" Что бы не распинаться рекомендую почитать тут что это такое, ибо факт известный
Игра детей правда все портит. Переводить их лепетание было очень тяжело, дикция и само воспроизводство (изложение) событий.
Вторая история про... Робби. Вот этот персонаж появляется во второй истории. Ну и ну! Кто бы мог подумать, что на почти документальный фильм будет выставлен такой герой. Его конечно малость обновили. но не узнать его НЕЛЬЗЯ.
Кому интересно идите сюда: http://www.kinopoisk.ru/name/139357/
============================
А вы в курсе. что в 13 серии Джек Гэтлен нас покинет его заменит другой персонаж? а вот Фитц останется до конца.
===============================
Красной линией тут проходит тема МОШЕННИЧЕСТВА!
Первая история рассказывает нам о семейке, в который муженек вложил все семейный накопления в завод производства летающих тарелок (этакая МММ американских 70-х), красиво обыграна тема одного классического фильма про НЛО (см. сцену в Отеле с горничной, и описанием фильма из её уст)
Второй сюжет показывает деловитого "профессора", который пытается погреть руки на деревенской семейке, такой правильной, религиозной.
Кстати "профессор" одно лицо с Чуровым, ну сами посмотрите
ПРОФЕССОР:

ЧУРОВ

Кстати случай с селянами, которые в долгах как в шелках - есть не что иное как Случай в Келли — Хопкинсвилле, ну разве что спецэффекты по слабее, и не так зрелищно
Иногда, кстати, создается впечатление, что сей фильм гос.заказ со стороны Правительства США. что бы опозорить искателей правды об НЛО, ибо всех таких искателей не от ВВС, выставляют идиотами или хапугами (см. нашего "Чурова" или бабку в самолете).
стати о самолете - ну на фига туда прилепили эти диалоги о мормонской церкви и воспоминания Гэтлена о его полетах на Ф-5?
По моему мнению это лучшая серия в проекте, к настоящему времени
============================================

MediaInfo

Общее
Полное имя : I:\Project UFO s1-2e01-26x26 1978-79.XviD.VHSRip.Rus\Sighting 4001 The Washington D.C. Incident.avi.avi
Формат : AVI
Формат/Информация : Audio Video Interleave
Размер файла : 490 Мбайт
Продолжительность : 48 м.
Общий поток : 1402 Кбит/сек
Название фильма : Sighting 4001 - The Washing D.C. Incident
Режиссёр : Project U.F.O.
Программа кодирования : VirtualDubModRus 1.5.10.2 (build 2542/release)
Библиотека кодирования : VirtualDubMod build 2542/release
Видео
Идентификатор : 0
Формат : MPEG-4 Visual
Профиль формата : Simple@L3
Параметр BVOP формата : Нет
Параметр QPel формата : Нет
Параметр GMC формата : Без точки перехода
Параметр матрицы формата : Default (H.263)
Идентификатор кодека : XVID
Идентификатор кодека/Подсказка : XviD
Продолжительность : 48 м.
Битрейт : 1001 Кбит/сек
Ширина : 640 пикселей
Высота : 480 пикселей
Соотношение сторон : 4:3
Частота кадров : 29,970 кадров/сек
Цветовое пространство : YUV
Субдискретизация насыщенности : 4:2:0
Битовая глубина : 8 бит
Тип развёртки : Прогрессивная
Метод сжатия : С потерями
Бит/(Пиксели*Кадры) : 0.109
Размер потока : 349 Мбайт (71%)
Библиотека кодирования : XviD 64
Аудио #1
Идентификатор : 1
Формат : AC-3
Формат/Информация : Audio Coding 3
Расширение режима : CM (complete main)
Параметр Endianness формата : Big
Идентификатор кодека : 2000
Продолжительность : 48 м.
Вид битрейта : Постоянный
Битрейт : 192 Кбит/сек
Каналы : 2 канала
Расположение каналов : Front: L R
Частота : 48,0 КГц
Битовая глубина : 16 бит
Метод сжатия : С потерями
Размер потока : 67,1 Мбайт (14%)
Выравнивание : Разделение по промежуткам
Продолжительность промежутка : 33 мс. (1,00 видеокадр)
Время предзагрузки промежутка : 500 мс.
Аудио #2
Идентификатор : 2
Формат : AC-3
Формат/Информация : Audio Coding 3
Расширение режима : CM (complete main)
Параметр Endianness формата : Big
Идентификатор кодека : 2000
Продолжительность : 48 м.
Вид битрейта : Постоянный
Битрейт : 192 Кбит/сек
Каналы : 2 канала
Расположение каналов : Front: L R
Частота : 48,0 КГц
Битовая глубина : 16 бит
Метод сжатия : С потерями
Размер потока : 67,1 Мбайт (14%)
Выравнивание : Разделение по промежуткам
Продолжительность промежутка : 33 мс. (1,00 видеокадр)
Время предзагрузки промежутка : 500 мс.

Скриншоты














cd Сериал дополнительно залит на облако mail.ru cd2
[Profile] [PM]

Starlay

Gender: Male

Longevity: 2 years 5 months

Posts: 253

Post 28-Jan-2020 13:24 (after 5 years 10 months)

[Quote]

В 2019 г. состоялась премьера сериала «Проект "Синяя книга"». На данный момент снято 2 сезона, и сериал пока не собираются закрывать. По источникам (Википедия) «Проект "Синяя книга"» не является ремейком или продолжением сериала «Проект НЛО», но сюжет обоих сериалов очень похож. Оба сериала основываются на проекте «Синяя книга», имевшим место в действительности. На мой взгляд, сериал «Проект "Синяя книга"» можно смотреть как продолжение «Проекта НЛО». Новый сериал официально показывают на Кинопоиске.
[Profile] [PM]
Display posts:    
Reply to topic

Current time is: 28-May 03:45

All times are UTC + 3



You cannot post new topics in this forum
You cannot reply to topics in this forum
You cannot edit your posts in this forum
You cannot delete your posts in this forum
You cannot vote in polls in this forum
You cannot attach files in this forum
You cannot download files in this forum