Приключения капитана Зума в открытом космосе / The Adventures of Captain Zoom in Outer Space (Макс Тэш / Max Tash) [1995 г., фантастика, комедия, SATRip] АО (Визгунов С.)

Reply to topic
 
Author Message

$Shorox ®

Gender: Male

Longevity: 7 years 9 months

Posts: 1887

Post 28-Feb-2014 08:31

[Quote]

Приключения капитана Зума в открытом космосе / The Adventures of Captain Zoom in Outer Space
Год выпуска: 1995
Страна: США
Жанр: фантастика, комедия
Продолжительность: 01:27:03
Перевод: Авторский одноголосый Визгунов С.
Режиссер: Макс Тэш / Max Tash
В ролях: Дэниэл Риордан / Daniel Riordan, Лиз Вэсси / Liz Vassey, Рон Перлман / Ron Perlman, Джиа Каридес / Gia Carides, Дуан Дэвис / Duane Davis, Грегори Смит / Gregory Smith, Нишелль Николс / Nichelle Nichols, Рик Копп / Rick Copp, Ллойд Берри / Lloyd Berry, Дэвид Милреа / David Mylrea
Описание: В глубоком космосе, на далёкой планете Пангея власть захвачена злобным тираном лордом Воксом. Звёздный герой, защитник Вселенной капитан Зум спешит на помощь.
Релиз

Качество: SATRip
Формат: AVI
Видео кодек: XviD
Аудио кодек: AC3
Видео: XviD, 720x544, 4:3, 25.000 fps, 985 Kbps
Аудио 1: Русский AC-3, 192 Kbps, 2 channels, 48.0 KHz
Аудио 2: Английский AC-3, 256 Kbps, 2 channels, 48.0 KHz
Работа над релизом:
Рип найден в сети.
Синхрон русской дорожки - sasha20072007 (kosmoaelita)

Сэмпл


Пример русской озвучки

Дополнительно

слоган «In a time of evil, in a distant galaxy, a planet under siege awaits a hero»
(original title) The Adventures of Captain Zoom in Outer Space
Germany Captain Zoom
France Les aventures de Captain Zoom
Hungary Zoom kapitány kalandjai
Poland Przygody kapitana Zooma w kosmosie
Sweden Kapten Zoom
================================================
Для Украины: рип и оригинальный ДВД дополнительно залиты в файлохранилище
Рип дополнительно залит на mail.ru
Для удаления,добавления и извлечения дорожек в mkv используйте бесплатную портативную mkvmerge GUI 6.6.0
Для присоединения потом дорожек к avi воспользуйтесь VirtualDubMod

МедиаИнфо

General
Complete name : F:\The Adventures of Captain Zoom 1995.XviD.SATRip.Rus.kosmoaelita.avi
Format : AVI
Format/Info : Audio Video Interleave
File size : 901 MiB
Duration : 1h 27mn
Overall bit rate : 1 448 Kbps
Writing application : VirtualDubMod 1.5.10.3 (build 2550/release)
Writing library : VirtualDubMod build 2550/release
Video
ID : 0
Format : MPEG-4 Visual
Format profile : Advanced Simple@L5
Format settings, BVOP : 1
Format settings, QPel : No
Format settings, GMC : No warppoints
Format settings, Matrix : Custom
Codec ID : XVID
Codec ID/Hint : XviD
Duration : 1h 27mn
Bit rate : 985 Kbps
Width : 720 pixels
Height : 544 pixels
Display aspect ratio : 4:3
Frame rate : 25.000 fps
Color space : YUV
Chroma subsampling : 4:2:0
Bit depth : 8 bits
Scan type : Progressive
Compression mode : Lossy
Bits/(Pixel*Frame) : 0.101
Stream size : 613 MiB (68%)
Writing library : XviD 1.2.0.dev47 (UTC 2006-11-01)
Audio #1
ID : 1
Format : AC-3
Format/Info : Audio Coding 3
Mode extension : CM (complete main)
Format settings, Endianness : Big
Codec ID : 2000
Duration : 1h 27mn
Bit rate mode : Constant
Bit rate : 192 Kbps
Channel count : 2 channels
Channel positions : Front: L R
Sampling rate : 48.0 KHz
Bit depth : 16 bits
Compression mode : Lossy
Stream size : 120 MiB (13%)
Alignment : Split accross interleaves
Interleave, duration : 40 ms (1.00 video frame)
Interleave, preload duration : 500 ms
Title : Русский АО (Визгунов)
Audio #2
ID : 2
Format : AC-3
Format/Info : Audio Coding 3
Mode extension : CM (complete main)
Format settings, Endianness : Big
Codec ID : 2000
Duration : 1h 27mn
Bit rate mode : Constant
Bit rate : 256 Kbps
Channel count : 2 channels
Channel positions : Front: L R
Sampling rate : 48.0 KHz
Bit depth : 16 bits
Compression mode : Lossy
Stream size : 159 MiB (18%)
Alignment : Split accross interleaves
Interleave, duration : 40 ms (1.00 video frame)
Interleave, preload duration : 500 ms
Title : Eng

Скриншоты





cd Рип дополнительно залит на облако mail.ru cd2


Last edited by $Shorox on 2014-04-19 23:55; edited 3 times in total
[Profile] [PM]

$Shorox ®

Gender: Male

Longevity: 7 years 9 months

Posts: 1887

Post 28-Feb-2014 08:36 (after 4 minutes)

[Quote]

admin
Залил Ваш файл.
На рутрекере сделаю раздачу, но без английской дороги. Она там по правилам в размеры не попадает.
Сравнение: VHSRip vs. SATRip
[Profile] [PM]
Display posts:    
Reply to topic

Current time is: 25-Sep 03:58

All times are UTC + 3



You cannot post new topics in this forum
You cannot reply to topics in this forum
You cannot edit your posts in this forum
You cannot delete your posts in this forum
You cannot vote in polls in this forum
You cannot attach files in this forum
You cannot download files in this forum