Официальное отрицание (ТВ) / Official Denial / Negacion Oficial (Брайан Тренчард-Смит / Brian Trenchard-Smith) [1994 г., фантастика, VHSRip] ЛО (den904), СТ (Severnyj, kosmoaelita)

Reply to topic
 
Author Message

admin ®

Gender: Male

Longevity: 7 years 6 months

Posts: 4811

Post 27-Feb-2014 22:50

[Quote]

Официальное отрицание (ТВ) / Official Denial / Negacion Oficial
Год выпуска: 1994
Страна: США, C.N.M. Entertainment Ltd.
Жанр: фантастика
Продолжительность: 01:27:26
Перевод 1: ЛО den904
Перевод 2: Субтитры Severnyj
Русский релиз увидел свет благодаря сборам от
sasha20072007 (300), $Shorox (250), ilsasss (150), DEICIDE (300)

Режиссер: Брайан Тренчард-Смит / Brian Trenchard-Smith
В ролях:
Parker Stevenson ... Paul Corliss
Dirk Benedict ... Lt. Col. Dan Lerner
Erin Gray ... Annie Corliss
Chad Everett ... General Spaulding
Michael Pate ... Wisdomkeeper
Christopher Pate ... Sam Fools Crow
Natalie McCurry ... Janine
Robert Mammone ... Michael Novado
Peter Curtin ... Jonathon Applegate
Regina Gaigalas ... Dr. Melendez (as Gina Gaigalas)
Justin Monjo ... Franklin Kolbe
Michael Edward-Stevens ... Savage
Don Halbert ... Sergeant Bridges
Christopher Mayer ... Sergeant Gilleland
Chuck Perry ... Situation Room Controller
Описание: Ничем не примечательного обывателя постоянно забирают к себе на «тарелку» пришельцы, так как у них с ним свои особые отношения и общие задачи, о которых землянин поначалу ничего не знал. Когда же НЛО сбили ВВС США, он был единственным, кто смог прийти пришельцам на помощь. Да и пришельцы ли они? Разгадка кроется намного глубже...
Релиз

Качество: VHSRip
Формат: MKV
Видео: x264, 1121 кбит/с, 640x448, 29.97 к/с
Аудио 1: Русский ЛО (den904) (AC3, 2 ch, 192 Кбит/с)
Аудио 2: Английский (AC3, 2 ch, 192 Кбит/с)
Субтитры : Русские (Severnyj, kosmoaelita)
Работа над релизом:
Релиз - kosmoaelita
Рип найден в сети
Перевод на слух с английского по заказу kosmoaelita - Severnyj
Русская озвучка по заказу kosmoaelita - den904
Русский релиз увидел свет благодаря сборам от sasha20072007 (300), $Shorox (250), ilsasss (150), DEICIDE (300)



Пример русской озвучки

Дополнительно

Also Known As (AKA)
(original title) Official Denial
Germany Mission - Alien
Germany Space Visitors
Finland Virallisesti kielletty
Hungary Space Visitors
Italy Incontri ravvicinati
================================================
Для Украины: рип дополнительно залит в файлохранилище
Рип дополнительно залит на mail.ru
Для удаления,добавления и извлечения дорожек в mkv используйте бесплатную портативную mkvmerge GUI 6.6.0
Для присоединения потом дорожек к avi воспользуйтесь VirtualDubMod

Отзывы

MediaInfo

Общее
Уникальный идентификатор : 183658163803664850289516256913476645919 (0x8A2B46959717C9379D5F506AABC1741F)
Полное имя : N:\Official Denial 1994.x264.VHSRip.Rus.kosmoaelita.mkv
Формат : Matroska
Версия формата : Version 4 / Version 2
Размер файла : 958 Мбайт
Продолжительность : 1 ч. 27 м.
Общий поток : 1532 Кбит/сек
Название фильма : Официальное отрицание / Official Denial / 1994 / Релиз трекера kosmoaelita
Дата кодирования : UTC 2014-04-13 22:12:21
Программа кодирования : mkvmerge v6.6.0 ('The Edge Of The In Between') built on Dec 7 2013 13:21:48
Библиотека кодирования : libebml v1.3.0 + libmatroska v1.4.1
Видео
Идентификатор : 1
Формат : AVC
Формат/Информация : Advanced Video Codec
Профиль формата : High@L4.1
Параметр CABAC формата : Да
Параметр ReFrames формата : 10 кадров
Идентификатор кодека : V_MPEG4/ISO/AVC
Продолжительность : 1 ч. 27 м.
Битрейт : 1117 Кбит/сек
Ширина : 640 пикселей
Высота : 464 пикселя
Соотношение сторон : 1,379
Режим частоты кадров : Постоянный
Частота кадров : 29,970 кадров/сек
Цветовое пространство : YUV
Субдискретизация насыщенности : 4:2:0
Битовая глубина : 8 бит
Тип развёртки : Прогрессивная
Бит/(Пиксели*Кадры) : 0.126
Размер потока : 699 Мбайт (73%)
Заголовок : Релиз трекера kosmoaelita
Библиотека кодирования : x264 core 130 r2273 b3065e6
Настройки программы : cabac=1 / ref=10 / deblock=1:-1:-1 / analyse=0x3:0x133 / me=umh / subme=10 / psy=1 / psy_rd=0.99:0.14 / mixed_ref=1 / me_range=24 / chroma_me=1 / trellis=2 / 8x8dct=1 / cqm=0 / deadzone=21,11 / fast_pskip=1 / chroma_qp_offset=-3 / threads=6 / lookahead_threads=1 / sliced_threads=0 / nr=0 / decimate=1 / interlaced=0 / bluray_compat=0 / constrained_intra=0 / bframes=10 / b_pyramid=2 / b_adapt=2 / b_bias=0 / direct=1 / weightb=1 / open_gop=0 / weightp=2 / keyint=200 / keyint_min=20 / scenecut=40 / intra_refresh=0 / rc_lookahead=60 / rc=crf / mbtree=1 / crf=18.0 / qcomp=0.63 / qpmin=0 / qpmax=69 / qpstep=4 / ip_ratio=1.25 / aq=1:0.90
Default : Да
Forced : Нет
Аудио #1
Идентификатор : 2
Формат : AC-3
Формат/Информация : Audio Coding 3
Расширение режима : CM (complete main)
Параметр Endianness формата : Big
Идентификатор кодека : A_AC3
Продолжительность : 1 ч. 27 м.
Вид битрейта : Постоянный
Битрейт : 192 Кбит/сек
Каналы : 2 канала
Расположение каналов : Front: L R
Частота : 48,0 КГц
Битовая глубина : 16 бит
Метод сжатия : С потерями
Размер потока : 120 Мбайт (13%)
Заголовок : Русский ЛО (den904 для kosmoaelita.com)
Язык : Russian
Default : Да
Forced : Нет
Аудио #2
Идентификатор : 3
Формат : AC-3
Формат/Информация : Audio Coding 3
Расширение режима : CM (complete main)
Параметр Endianness формата : Big
Идентификатор кодека : A_AC3
Продолжительность : 1 ч. 27 м.
Вид битрейта : Постоянный
Битрейт : 192 Кбит/сек
Каналы : 2 канала
Расположение каналов : Front: L R
Частота : 48,0 КГц
Битовая глубина : 16 бит
Метод сжатия : С потерями
Размер потока : 120 Мбайт (13%)
Язык : English
Default : Нет
Forced : Нет
Текст #1
Идентификатор : 4
Формат : VobSub
Режим смешивания : zlib
Идентификатор кодека : S_VOBSUB
Идентификатор кодека/Информация : The same subtitle format used on DVDs
Заголовок : Русский (kosmoaelita,Severnyj) VobSub
Язык : Russian
Default : Да
Forced : Нет
Текст #2
Идентификатор : 5
Формат : UTF-8
Идентификатор кодека : S_TEXT/UTF8
Идентификатор кодека/Информация : UTF-8 Plain Text
Заголовок : Русский (kosmoaelita,Severnyj) srt
Язык : Russian
Default : Нет
Forced : Нет

Пример субтитров

2
00:00:10,397 --> 00:00:14,200
Компания Парамаунт
представляет фильм...
3
00:00:21,117 --> 00:00:27,277
"Официальное отрицание"
(Official Denial, 1994г)
4
00:00:29,717 --> 00:00:32,477
В ролях:
Паркер Стивенсон
5
00:00:34,117 --> 00:00:36,277
Дирк Бенедикт
6
00:00:38,117 --> 00:00:40,277
Эрин Грей
и другие
7
00:01:34,410 --> 00:01:39,081
Я видела Тэмми Шумен на реке Тали.
Ты знал, что она снова беременна?
8
00:01:39,778 --> 00:01:41,598
- Правда?
- Да.
9
00:01:43,457 --> 00:01:45,387
Понимаю, тебе, наверное, тяжело
это переживать.
10
00:01:45,685 --> 00:01:49,349
- Я счастлива за неё.
- Но ты бы хотела быть на её месте.
11
00:01:50,961 --> 00:01:53,542
Ну... ещё не всё потеряно.
12
00:01:57,892 --> 00:02:00,025
Ты уж точно не пожалеешь,
что столько ждал.
13
00:02:08,092 --> 00:02:16,441
О, Пол... Мне 37 лет.
Время на исходе. Знаешь...
14
00:02:17,128 --> 00:02:21,941
Может, если начнёшь думать о подгузниках
и распашонках, сможешь отвлечься от...
15
00:02:21,987 --> 00:02:25,811
Энни, даже если у нас появятся дети,
всё это так просто не исчезнет.
---------------------
1000
01:25:15,086 --> 01:25:19,563
Надежда. Да...
1001
01:25:20,714 --> 01:25:22,114
Надежда.
1002
01:25:40,714 --> 01:25:47,114
Перевод на слух с англ. Severnyj
Ред. sasha20072007
февраль, 2014 года
1003
01:25:48,714 --> 01:25:53,114
Релиз
www.kosmoaelita.com

Скриншоты

















cd Рип дополнительно залит на облако mail.ru cd2


Last edited by admin on 2014-04-15 22:57; edited 9 times in total
[Profile] [PM]

admin ®

Gender: Male

Longevity: 7 years 6 months

Posts: 4811

Post 27-Feb-2014 22:51 (after 1 minute)

[Quote]

http://kosmoaelita.com/viewtopic.php?t=1062
Ден пока без компа сидит.Надеюсь, у него все скоро наладится.
[Profile] [PM]

koslofff

Gender: Unknown

Post 06-Mar-2014 15:38 (after 6 days)

[Quote]

Респект парни!
 

Guest

Gender: Unknown

Post 13-Apr-2014 22:13 (after 1 month 7 days)

[Quote]

Добавлена озвучка от den904
 
Display posts:    
Reply to topic

Current time is: 31-Mar 02:30

All times are UTC + 3



You cannot post new topics in this forum
You cannot reply to topics in this forum
You cannot edit your posts in this forum
You cannot delete your posts in this forum
You cannot vote in polls in this forum
You cannot attach files in this forum
You cannot download files in this forum