Запрограммированная убивать / Мстительница / Несущий возмездие / Машина смерти / The Retaliator / Programmed to Kill (Аллан Холцмен / Allan Holzman, Роберт Шорт / Robert Short) [1987 г., фантастика, боевик, TVRip] АО (В.Котов)

Reply to topic
DL-List and Torrent activity
Size:  1020 MB   |    Registered:  6 years 1 month   |    Completed:  8 times

Seeder not seen: 11 months 13 days

 
   
 
 
 
Author Message

admin ®

Gender: Male

Longevity: 7 years 7 months

Posts: 4811

Post 23-Feb-2014 20:50

[Quote]

Запрограммированная убивать / Мстительница / Несущий возмездие / Машина смерти / The Retaliator / Programmed to Kill
Год выпуска: 1987
Страна: США , Retaliator Productions
Жанр: фантастика, боевик
Продолжительность: 01:31:04
Перевод: Авторский одноголосый (В.Котов)
Режиссер: Аллан Холцмен / Allan Holzman, Роберт Шорт / Robert Short
В ролях:
Robert Ginty ... Eric Mathews
Sandahl Bergman ... Samira
James Booth ... Brock
Alex Courtney ... Blake
Paul Walker ... Jason (as Paul W. Walker)
Louise Caire Clark ... Sharon
Peter Bromilow ... Donovan
George Fisher ... Mike
Jim Turner ... Chris
Bill Allard ... Assistant Surgeon
Chaim Banai ... Racehorse
Liliana Cameroni ... Nurse
Dan Coffey ... Assistant Doctor
Jason Cornado ... Chuck
John Gillespie ... Soldier
Описание: Во время нападения на супермаркет в Греции агентам американской разведки удается захватить в плен террористку. Они перевозят девушку в США, где в большой тайне делают ей кибернетическую операцию, превратив в контролируемого посредством компьютера робота. Но как долго девушка будет подчиняться командам, поступающим из центра? Естественно, вскоре в ее компьютерном мозге происходи «сдвиг по фазе», в результате чего героиня вспоминает, кто она на самом деле. Теперь она жаждет мести. Противостоять ей сможет только обыкновенный американский спецназовец Эрик Мэттьюз, который когда-то и захватил ее в плен. Помнит ли еще девушка такое «добро»?…
Качество: TVRip
Формат: AVI
Видео: xvid, 1189 кбит/с, 608x432, 23.976 к/с
Аудио 1: Русский АО (В.Котов) (AC3, 2 ch, 192 Кбит/с)
Аудио 2: Английский (MP3, 2 ch, 192 Кбит/с)
Работа над релизом:
Рип найден на CG.
синхрон русской дорожки - sasha20072007 (kosmoaelita)



Пример русской озвучки

Дополнительно

слоган «They made her the perfect killing machine - then they lost control!»
Also Known As (AKA)
(original title) Programmed to Kill
The Retaliator
Spain Retaliator, programada para matar
Greece (transliterated ISO-LATIN-1 title) Pera apo tin Kolasi
Portugal Máquina Mortífera
================================================
Для Украины: рип дополнительно залит в файлохранилище
Рип дополнительно залит на mail.ru
Для удаления,добавления и извлечения дорожек в mkv используйте бесплатную портативную mkvmerge GUI 6.6.0
Для присоединения потом дорожек к avi воспользуйтесь VirtualDubMod

Отзывы

был более известен на кассетах как Мстительница и вроде бы (!) в перереводе Володарского, но не факт...
----------------------------------------------------

MediaInfo

Общее
Полное имя : N:\The Retaliator 1987.XviD.TVRip.Rus.kosmoaelita.avi
Формат : AVI
Формат/Информация : Audio Video Interleave
Размер файла : 1020 Мбайт
Продолжительность : 1 ч. 31 м.
Режим общего битрейта : Переменный
Общий поток : 1566 Кбит/сек
Программа кодирования : VirtualDubModRus 1.5.10.2 (build 2542/release)
Библиотека кодирования : VirtualDubMod build 2542/release
Видео
Идентификатор : 0
Формат : MPEG-4 Visual
Профиль формата : Advanced Simple@L5
Параметр BVOP формата : 1
Параметр QPel формата : Нет
Параметр GMC формата : Без точки перехода
Параметр матрицы формата : Default (MPEG)
Режим смешивания : Сжатый битовый поток
Идентификатор кодека : XVID
Идентификатор кодека/Подсказка : XviD
Продолжительность : 1 ч. 31 м.
Битрейт : 1189 Кбит/сек
Ширина : 608 пикселей
Высота : 432 пикселя
Соотношение сторон : 1,407
Частота кадров : 23,976 кадра/сек
Цветовое пространство : YUV
Субдискретизация насыщенности : 4:2:0
Битовая глубина : 8 бит
Тип развёртки : Прогрессивная
Метод сжатия : С потерями
Бит/(Пиксели*Кадры) : 0.189
Размер потока : 775 Мбайт (76%)
Библиотека кодирования : XviD 1.2.0.dev47 (UTC 2006-11-01)
Аудио #1
Идентификатор : 1
Формат : AC-3
Формат/Информация : Audio Coding 3
Расширение режима : CM (complete main)
Параметр Endianness формата : Big
Идентификатор кодека : 2000
Продолжительность : 1 ч. 31 м.
Вид битрейта : Постоянный
Битрейт : 192 Кбит/сек
Каналы : 2 канала
Расположение каналов : Front: L R
Частота : 48,0 КГц
Битовая глубина : 16 бит
Метод сжатия : С потерями
Размер потока : 125 Мбайт (12%)
Выравнивание : Разделение по промежуткам
Продолжительность промежутка : 42 мс. (1,00 видеокадр)
Время предзагрузки промежутка : 500 мс.
Заголовок : Русский АО (Котов)
Аудио #2
Идентификатор : 2
Формат : MPEG Audio
Версия формата : Version 1
Профиль формата : Layer 3
Режим : Joint stereo
Идентификатор кодека : 55
Идентификатор кодека/Подсказка : MP3
Продолжительность : 1 ч. 31 м.
Вид битрейта : Переменный
Битрейт : 167 Кбит/сек
Номинальный битрейт : 192 Кбит/сек
Каналы : 2 канала
Частота : 48,0 КГц
Метод сжатия : С потерями
Размер потока : 109 Мбайт (11%)
Выравнивание : Соединение по промежуткам
Продолжительность промежутка : 24 мс. (0,58 видеокадр)
Время предзагрузки промежутка : 569 мс.
Заголовок : Engl
Библиотека кодирования : LAME3.97
Настройки программы : -m j -V 4 -q 2 -lowpass 18.6 --abr 192

Скриншоты















cd Рип дополнительно залит на mail.ru cd2
The Retaliator 1987.XviD.TVRip.Rus.kosmoaelita.avi.torrent
Torrent: Registered [ 2014-02-23 20:50 ]

Download .torrent

Download

40 KB

Status: checked
Completed: 8 times
Size: 1020 MB
 


Last edited by admin on 2014-02-24 01:51; edited 1 time in total
[Profile] [PM]

admin ®

Gender: Male

Longevity: 7 years 7 months

Posts: 4811

Post 23-Feb-2014 20:56 (after 6 minutes)

[Quote]

Сравнение: kosmoaelita.com vs. rutracker
[Profile] [PM]

Guest

Gender: Unknown

Post 24-Feb-2014 15:49 (after 18 hours)

[Quote]

За переводом Гаврилова обращайтесь....он готовый уже.
 
Display posts:    
Reply to topic

Current time is: 03-Apr 00:43

All times are UTC + 3



You cannot post new topics in this forum
You cannot reply to topics in this forum
You cannot edit your posts in this forum
You cannot delete your posts in this forum
You cannot vote in polls in this forum
You cannot attach files in this forum
You can download files in this forum