Флэш Гордон встречает космических болельщиц / Флэш Гордон и космическая тусовка / Флеш Гордон встречает космических дирижеров скандирования / Flesh Gordon Meets the Cosmic Cheerleaders / Flesh Gordon 2 / Flash Gordon (Howard Ziehm) [1990 г., фант., комедия, пародия, эротика, DVDRip] 2хАО (Дьяконов, Горчаков, Петербуржец)

Ответить на тему
 
Автор Сообщение

admin ®

Пол: Мужской

Стаж: 5 лет 2 месяца

Сообщений: 4748

Откуда: Україна

Создавать темы 19-Фев-2014 03:26

[Цитировать]

Флэш Гордон встречает космических болельщиц / Флэш Гордон и космическая тусовка / Флеш Гордон встречает космических дирижеров скандирования / Flesh Gordon Meets the Cosmic Cheerleaders / Flesh Gordon 2 / Flash Gordon
Год выпуска: 1990
Страна: Канада, Filmvest International
Жанр: фантастика, комедия, пародия, эротика
Продолжительность: 01:42:22
Перевод: 3 х Авторский одноголосый Дьяконов, Горчаков, Петербуржец (студии Поликорн)
Режиссер: Говард Зим / Howard Ziehm
В ролях:
Vince Murdocco ... Flesh Gordon
Robyn Kelly ... Dale Ardor
Tony Travis ... Dr. Flexi Jerkoff
William Dennis Hunt ... Evil Presence
Morgan Fox ... Robunda Hooters
Bruce Scott ... Master Bator
Maureen Webb ... Queen Frigid (as Dee Lux)
Stevie-Lyn Ray ... Babs
Sharon Rowley ... Candy Love
Blaire Kashino ... Sushi
Melissa Mounds ... Bazonga Bomber
Michael Metcalfe ... Chief Diareahh
Sandy Jafferay ... Bob Turd
Jayne Smith ... Mary Turd
Michael Coulter ... Little Poop
Описание: Вторая часть эротической пародии на знаменитого Флэша Гордона (Flash Gordon)
Статный кудрявый малый Флеш Гордон попадает на далекую планету, где его по известному делу одолевают аппетитные полуголые девахи. Много попок, дешевой бутафории из времен Мельеса, шуточек уровня говорящих пенисов и огромных воняющих космических задов.

Первая часть
Качество: DVDRip
Формат: MKV
Видео: x264, 1644 кбит/с, 720x548, 23.976 к/с, crf=18
Аудио 1: Русский АО (К.Дьяконов) (AC3, 2 ch, 192 Кбит/с)
Аудио 2: Русский АО (Горчаков) (AC3, 2 ch, 192 Кбит/с)
Аудио 3: Русский АО (Петербуржец) (AC3, 2 ch, 192 Кбит/с)
Аудио 4: Английский (AC3, 2 ch, 192 Кбит/с)
Работа над релизом:
Рип с ДВД5 - sasha20072007 (kosmoaelita)
Синхрон русских дорожек - kosmoaelita
Дорожка Дьяконова частично выкуплена для kosmoaelita.com
За кассетную дорожку "неизвестный студии Поликорн, Санкт-Петербург Петербуржец" спасибо alenavova



Пример озвучки Дьяконова

Дополнительно

слоган «Coming to save the universe from a diabolical menace... Galactic impotence!»
бюджет $1 500 000
рейтинг MPAA лицам до 17 лет просмотр запрещен
Also Known As (AKA)
(original title) Flesh Gordon Meets the Cosmic Cheerleaders
Flesh Gordon 2
France Le retour de Flesh Gordon
West Germany Flesh Gordon - Schande der Galaxis
================================================
Для Украины: рип и оригинальный ДВД дополнительно залиты в файлохранилище
Для удаления,добавления и извлечения дорожек в mkv используйте бесплатную портативную mkvmerge GUI 6.6.0
Для присоединения потом дорожек к avi воспользуйтесь VirtualDubMod

Отзывы

давно смотрел на видеокасете, там был доктор Дрочило и мозгоё..ый шлем, в переводе, жаль здесь перевод не тот.
------------------------------
Да, я помню - но ТОТ фильм назывался "Флеш Гордон и космическая тусовка" - но в ЭТОМ тоже прикольный перевод! а в том было: "Мозгое----льный Шлем? - Зачем он? Не знаю...для науки, наверное
-----------------------------------
фильм вроде как ничего, но перевод - это не перевод, а кал. все видеосалоном пробавляемся. жаль.Согласен. Можно с уверенностью сказать, что значительная часть фильма не переведена вовсе (пропущены многие диалоги), а оставшееся переведено весьма коряво, что портит весь комедийный эффект. Досмотрел до эпизода, где не переведена фраза о курах-лесбиянках, плюнул и удалил фильм.
-------------------------------
Фильм хорош, жаль перевод не тот. Этот половину юмора просто убивает. Вот бы ТОТ найти...

Рецензия

Сюжет: СупермужЫка Флэша Гордона похищают таинственные чирлидерши прямо из под носа его подруги Дэйл, и сначала трахают ему мозг, а потом и за другой орган принимаются с двойным усилием. Основанием для таких дел послужил таинственный злодей и его луч, который сделал всех мужиков на их планете импотентами. В то же время Дэйл не растерялась и разыскала профессора Джоркова, и отправилась выручать Флэша. Но в итоге сама угодила к этому таинственному упырю, который, после контакта с лучом, сам стояка уже с год не видел, и планирует выманить Флэша и отрубить ему член, а уж далее и обезродить планету Земля.
Это кино серьёзно съедает мозг. Нездоровой фантазии Зима хватает и на силиконовые сисько-холмы с обсирающимся Кинг-Конгом с длинным членом, и на жопстеройды, и на членомонстров, и даже на говорящее говно во главе с шефом Поносом. Такое ощущение, что по замыслу это всё-таки изначально должна была быть порнуха, но позже Ховард решил удариться в трэш-пародию, снабдив её таким количеством кало-шуток, что Аарон Зельцер с Джейсоном Фридбергом удавились бы с зависти. Над большинством «юморных» сцен охота сходить проблеваться. Но тем не менее кое-где кинцо даже умудряется быть забавным. Здоровым идиотизмом попахивают сцены, где профессор Дрочер (Jerkoff, гы) на каждой новой планете радостно восклицает: «Ух ты, и тут кислород имеется». А космический корабль в виде члена и подобные шутки с Земли, хоть и донельзя идиотские, но тем не менее были придуманы гораздо раньше Джея Роуча (тоже мне состязание на остроумие). Каков фильм, такая собственно и игра актёров. Все участники съёмок на фоне всех этих резиновых недомонстров кривляются от души, даже и не знаю, откуда столько запала то взяли. Хотя снимать такое говно всегда веселее, чем потом смотреть результат. Надеюсь хоть хорошо провели время ибо зрелище это просто невозможное.
Мне как любителю подобного бреда сойдёт на
6 из 10

MediaInfo

Общее
Уникальный идентификатор : 242290625551319955029571722821122016987 (0xB6477A232F05195EAE32D4ED1B2A46DB)
Полное имя : N:\Flesh Gordon Meets the Cosmic Cheerleaders 1990.x264.DVDRip.3xRus.kosmoaelita.mkv
Формат : Matroska
Версия формата : Version 4 / Version 2
Размер файла : 1,73 Гбайт
Продолжительность : 1 ч. 42 м.
Общий поток : 2416 Кбит/сек
Название фильма : Flesh Gordon Meets the Cosmic Cheerleaders / 1989 / rip from DVD5 by sasha20072007 (kosmoaelita) (2014-02-18), crf=18
Дата кодирования : UTC 2016-11-16 08:07:49
Программа кодирования : mkvmerge v6.6.0 ('The Edge Of The In Between') built on Dec 1 2013 17:55:00
Библиотека кодирования : libebml v1.3.0 + libmatroska v1.4.1
Attachments : Poster Flesh-Gordon-Meets-the-Cosmic-Cheerleaders.jpg
Видео
Идентификатор : 1
Формат : AVC
Формат/Информация : Advanced Video Codec
Профиль формата : High@L4.1
Параметр CABAC формата : Да
Параметр ReFrames формата : 10 кадров
Идентификатор кодека : V_MPEG4/ISO/AVC
Продолжительность : 1 ч. 42 м.
Битрейт : 1644 Кбит/сек
Ширина : 720 пикселей
Высота : 548 пикселей
Соотношение сторон : 4:3
Режим частоты кадров : Постоянный
Частота кадров : 23,976 (24000/1001) кадра/сек
Цветовое пространство : YUV
Субдискретизация насыщенности : 4:2:0
Битовая глубина : 8 бит
Тип развёртки : Прогрессивная
Бит/(Пиксели*Кадры) : 0.174
Размер потока : 1,14 Гбайт (66%)
Библиотека кодирования : x264 core 130 r2273 b3065e6
Настройки программы : cabac=1 / ref=10 / deblock=1:-1:-1 / analyse=0x3:0x133 / me=umh / subme=11 / psy=1 / psy_rd=0.98:0.14 / mixed_ref=1 / me_range=24 / chroma_me=1 / trellis=2 / 8x8dct=1 / cqm=0 / deadzone=21,11 / fast_pskip=1 / chroma_qp_offset=-3 / threads=6 / lookahead_threads=1 / sliced_threads=0 / nr=0 / decimate=1 / interlaced=0 / bluray_compat=0 / constrained_intra=0 / bframes=10 / b_pyramid=2 / b_adapt=2 / b_bias=0 / direct=3 / weightb=1 / open_gop=0 / weightp=2 / keyint=200 / keyint_min=20 / scenecut=40 / intra_refresh=0 / rc_lookahead=60 / rc=2pass / mbtree=1 / bitrate=1644 / ratetol=1.0 / qcomp=0.63 / qpmin=0 / qpmax=69 / qpstep=4 / cplxblur=20.0 / qblur=0.5 / ip_ratio=1.25 / aq=1:0.90
Default : Да
Forced : Нет
Цветовой диапазон : Limited
Основные цвета : BT.601 PAL
Характеристики трансфера : BT.470 System B, BT.470 System G
Коэффициенты матрицы : BT.601
Аудио #1
Идентификатор : 2
Формат : AC-3
Формат/Информация : Audio Coding 3
Расширение режима : CM (complete main)
Параметр Endianness формата : Big
Идентификатор кодека : A_AC3
Продолжительность : 1 ч. 42 м.
Вид битрейта : Постоянный
Битрейт : 192 Кбит/сек
Каналы : 2 канала
Расположение каналов : Front: L R
Частота : 48,0 КГц
Частота кадров : 31,250 кадров/сек (1536 spf)
Метод сжатия : С потерями
Размер потока : 141 Мбайт (8%)
Заголовок : Русский АО (К.Дьяконов)
Язык : Russian
Default : Да
Forced : Нет
Аудио #2
Идентификатор : 3
Формат : AC-3
Формат/Информация : Audio Coding 3
Расширение режима : CM (complete main)
Параметр Endianness формата : Big
Идентификатор кодека : A_AC3
Продолжительность : 1 ч. 42 м.
Вид битрейта : Постоянный
Битрейт : 192 Кбит/сек
Каналы : 2 канала
Расположение каналов : Front: L R
Частота : 48,0 КГц
Частота кадров : 31,250 кадров/сек (1536 spf)
Метод сжатия : С потерями
Размер потока : 141 Мбайт (8%)
Заголовок : Русский АО (Горчаков)
Язык : Russian
Default : Нет
Forced : Нет
Аудио #3
Идентификатор : 4
Формат : AC-3
Формат/Информация : Audio Coding 3
Расширение режима : CM (complete main)
Параметр Endianness формата : Big
Идентификатор кодека : A_AC3
Продолжительность : 1 ч. 42 м.
Вид битрейта : Постоянный
Битрейт : 192 Кбит/сек
Каналы : 2 канала
Расположение каналов : Front: L R
Частота : 48,0 КГц
Частота кадров : 31,250 кадров/сек (1536 spf)
Метод сжатия : С потерями
Размер потока : 141 Мбайт (8%)
Заголовок : Русский АО (Петербуржец) - неизвестный студии Поликорн
Язык : Russian
Default : Нет
Forced : Нет
Аудио #4
Идентификатор : 5
Формат : AC-3
Формат/Информация : Audio Coding 3
Расширение режима : CM (complete main)
Параметр Endianness формата : Big
Идентификатор кодека : A_AC3
Продолжительность : 1 ч. 42 м.
Вид битрейта : Постоянный
Битрейт : 192 Кбит/сек
Каналы : 2 канала
Расположение каналов : Front: L R
Частота : 48,0 КГц
Частота кадров : 31,250 кадров/сек (1536 spf)
Метод сжатия : С потерями
Размер потока : 141 Мбайт (8%)
Язык : English
Default : Нет
Forced : Нет
Меню
00:04:01.241 : en:00:04:01.241
00:08:08.121 : en:00:08:08.121
00:12:07.360 : en:00:12:07.360
00:16:25.618 : en:00:16:25.618
00:18:23.870 : en:00:18:23.870
00:23:08.387 : en:00:23:08.387
00:26:08.834 : en:00:26:08.834
00:32:26.945 : en:00:32:26.945
00:36:11.937 : en:00:36:11.937
00:40:18.817 : en:00:40:18.817
00:42:32.817 : en:00:42:32.817
00:47:01.719 : en:00:47:01.719
00:52:13.898 : en:00:52:13.898
00:54:19.890 : en:00:54:19.890
00:56:23.013 : en:00:56:23.013
01:02:13.396 : en:01:02:13.396
01:07:11.561 : en:01:07:11.561
01:10:36.499 : en:01:10:36.499
01:16:56.879 : en:01:16:56.879
01:21:44.566 : en:01:21:44.566
01:26:29.718 : en:01:26:29.718
01:31:11.633 : en:01:31:11.633
01:36:00.288 : en:01:36:00.288
01:42:22.002 : en:01:42:22.002

Скриншоты
















Скринлист



Последний раз редактировалось: admin (2014-05-09 01:12), всего редактировалось 1 раз
[Профиль] [ЛС]

admin ®

Пол: Мужской

Стаж: 5 лет 2 месяца

Сообщений: 4748

Откуда: Україна

Создавать темы 08-Май-2014 21:02 (спустя 2 месяца 17 дней)

[Цитировать]

Добавлен полный авторский перевод от Дьяконова.
(В версии Горчакова примерно половина фраз не переведена)
[Профиль] [ЛС]

kosmoaelita

Пол: Мужской

Стаж: 5 лет 2 месяца

Сообщений: 969

Откуда: Украина

Создавать темы 16-Ноя-2016 11:43 (спустя 2 года 6 месяцев)

[Цитировать]

Добавлена кассетная дорожка от студии Поликорн
[Профиль] [ЛС]
Показать сообщения:    
Ответить на тему

Текущее время: 23-Ноя 22:17

Часовой пояс: UTC + 3:30



Вы не можете начинать темы
Вы не можете отвечать на сообщения
Вы не можете редактировать свои сообщения
Вы не можете удалять свои сообщения
Вы не можете голосовать в опросах
Вы не можете прикреплять файлы к сообщениям
Вы не можете скачивать файлы