Таинственная планета / Mysterious Planet (Бретт Пайпер / Brett Piper) [1982 г., фантастика, VHSRip] АО (А.Дольский)

Reply to topic
 
Author Message

admin ®

Gender: Male

Longevity: 8 years 1 month

Posts: 4795

Post 17-Feb-2014 01:26

[Quote]

Таинственная планета / Mysterious Planet
Год выпуска: 1982
Страна: США
Жанр: фантастика
Продолжительность: 01:10:01
Перевод: Авторский одноголосый А.Дольский
Режиссер: Бретт Пайпер / Brett Piper
В ролях: Paula Taupier
Boydd Piper
Michael Quigley
Bruce E. Nadeau Jr.
Rest of cast listed alphabetically:
Vance Dallas ... Member of the Jury
Hanna Landy
Marilyn Mullen
Bernard Nero
George Seavey
Cynthia Vacca
Описание: Космический корабль терпит крушение на неизвестной планете. К своему удивлению астронавты встречают на планете женщину, а также некоторых недружелюбных существ…
Качество: VHSRip
Формат: MKV
Видео: XviD, 1289 кбит/с, 512x384, 23.976 к/с
Аудио 1: Русский (МР3, 2 ch, 128 Кбит/с)
Аудио 2: Английский (AC3, 2 ch, 192 Кбит/с)
Работа над релизом:
Рип найден в сети.
Заказ русского перевода и "вывод в свет" - Suburban Sasquatch



Пример русской озвучки

Дополнительно

Also Known As (AKA)
(original title) Mysterious Planet
Germany (DVD box title) Star Odyssey: Mysterious Planet
France Mystérieuse Planète
West Germany Die Reise zum Planet des Grauens
бюджет: $5,000
================================================
Для Украины: рип дополнительно залит в файлохранилище
Рип дополнительно залит на mail.ru
Для удаления,добавления и извлечения дорожек в mkv используйте бесплатную портативную mkvmerge GUI 6.6.0
Для присоединения потом дорожек к avi воспользуйтесь VirtualDubMod

Знаете ли вы, что...

бюджет: $5,000
-----------------
первый фильм Пайпера.

Отзывы

Рецензия

Продолжаем вращать классиков в гробу. Часть 4: Трэш по Жюлю Верну или Жюль Верн по трэшу?
Бедный Жюль Верн! Как его только не уродовал Голливуд! Хуже могло быть, только если бы за него взялся Бретт Пайпер. Но сей ужас свершился! И вот, Бретт Пайпер снимает по Верну. Кстати, это его первый фильм. Но, в отличие от других режиссеров, здесь он уже окончательно определился со своим будущим. Прошло уже почти тридцать лет, а Пайпер всё ещё снимает невероятно дешёвый и глупый скай-фай трэш. Одно время он снимал фильмы при знаменитой трэшмэйкерской и трэшдистрибьюторской компании Troma Films и для E.I. Independent Cinema, другой независимой студии, занимающейся производством сексплотэйшна. Откровенно говоря, непонятно, для кого он вообще снимает фильмы. Вряд ли такие «шедевры», как «Дикарка-нимфомана в аду у динозавров», «Они кусаются» и «Арахния», смотрит кто-то кроме преданных фанатов.
Актёров как всегда понабрали с улицы, так что актёрская игра ну нуле. Фильм снимали на пляже и в пещерах. По большей части всё это напоминает home-video или кино, снятое семилетним ребёнком, которому дали в руки камеру и сказали: «Снимай всё, что видишь!». Да собственно так и можно было подумать, если бы какие-никакие спецэффекты. Самой зрелищной сценой в фильме является эпизод с нападением гигантской (!) двухголовой (!) улитки (!!!). Улитка была оживлена с помощью стопкадровой анимации (в восьмидесятых она уже стоила дёшево). А уродец в максе (или это его лицо?), который является одним из персонажей фильма тоже очень в стиле Пайпера. Одним словом в фильме ни одного достоинства. О том, что фильм не имеет ничего общего с одноимённым произведением Жюля Верна, хоть и числится как экранизация, я вообще молчу.
Итог: дешёвый, убогий и абсолютно не заслуживающий внимания трэш от Бретта Пайпера, пытающийся паразитировать на имени Жюля Верна. Слава Богу, что его ещё не перевели на русский! А если встретите его, пусть даже и случайно, я заклинаю вас, пройдите мимо!
2 из 10

MediaInfo

Общее
Полное имя : F:\Таинственная планета - Mysterious Planet (1982).avi
Формат : AVI
Формат/Информация : Audio Video Interleave
Размер файла : 715 Мбайт
Продолжительность : 1 ч. 10 м.
Общий поток : 1427 Кбит/сек
Название фильма : Mysterious.Planet.1982.VHSRip.XviD-FLAiR
Программа кодирования : VirtualDubModRus 1.5.10.2 (build 2540/release)
Библиотека кодирования : VirtualDubMod build 2540/release
Видео
Идентификатор : 0
Формат : MPEG-4 Visual
Профиль формата : Advanced Simple@L5
Параметр BVOP формата : 2
Параметр QPel формата : Нет
Параметр GMC формата : Без точки перехода
Параметр матрицы формата : Default (H.263)
Режим смешивания : Сжатый битовый поток
Идентификатор кодека : XVID
Идентификатор кодека/Подсказка : XviD
Продолжительность : 1 ч. 10 м.
Битрейт : 1289 Кбит/сек
Ширина : 512 пикселей
Высота : 384 пикселя
Соотношение сторон : 4:3
Частота кадров : 25,000 кадров/сек
Цветовое пространство : YUV
Субдискретизация насыщенности : 4:2:0
Битовая глубина : 8 бит
Тип развёртки : Прогрессивная
Метод сжатия : С потерями
Бит/(Пиксели*Кадры) : 0.262
Размер потока : 646 Мбайт (90%)
Библиотека кодирования : XviD 1.2.1 (UTC 2008-12-04)
Аудио
Идентификатор : 1
Формат : MPEG Audio
Версия формата : Version 1
Профиль формата : Layer 3
Режим : Joint stereo
Расширение режима : MS Stereo
Идентификатор кодека : 55
Идентификатор кодека/Подсказка : MP3
Продолжительность : 1 ч. 10 м.
Вид битрейта : Постоянный
Битрейт : 128 Кбит/сек
Каналы : 2 канала
Частота : 48,0 КГц
Метод сжатия : С потерями
Размер потока : 64,1 Мбайт (9%)
Выравнивание : Соединение по промежуткам
Продолжительность промежутка : 40 мс. (1,00 видеокадр)
Время предзагрузки промежутка : 504 мс.

Скриншоты















cd Рип дополнительно залит на mail.ru cd2
[Profile] [PM]

Susanin

Gender: Male

Longevity: 6 years 6 months

Posts: 849

Post 15-Oct-2016 18:32 (after 2 years 7 months)

[Quote]

А можно рип с ДВД?
http://cinemageddon.net/details.php?id=184982
Или там качество не лучше?
[Profile] [PM]

kosmoaelita

Gender: Male

Longevity: 8 years 1 month

Posts: 1687

Post 15-Oct-2016 18:33 (after 1 minute)

[Quote]

Там такой же VHS/
По скринах же видно.
[Profile] [PM]
Display posts:    
Reply to topic

Current time is: 29-Oct 07:24

All times are UTC + 3



You cannot post new topics in this forum
You cannot reply to topics in this forum
You cannot edit your posts in this forum
You cannot delete your posts in this forum
You cannot vote in polls in this forum
You cannot attach files in this forum
You cannot download files in this forum