Катастрофа на День Независимости / Independence Daysaster (В. Д. Хоган / W.D. Hogan) [2013 г., Фантастика, боевик, DVDRip] ПМ

Reply to topic
 
Author Message

admin ®

Gender: Male

Longevity: 7 years 3 months

Posts: 4813

Post 16-Feb-2014 21:54

[Quote]

Катастрофа на День Независимости / Independence Daysaster
Год выпуска: 2013
Страна: Канада, Independence Day Productions
Жанр: Фантастика, боевик
Продолжительность: 01:29:48
Перевод: Профессиональный (многоголосый, закадровый)
Режиссер: В. Д. Хоган / W.D. Hogan
В ролях:
Casey Dubois ... Nick
Rest of cast listed alphabetically:
Iain Belcher ... Todd
Andrea Brooks ... Eliza
Nicholas Carella ... SETI Technician
Aaron Craven ... Phillips
Revard Dufresne ... Secret Service Agent
Lane Edwards ... Major Preston
Emily Holmes ... Celia Lehman
Michael Kopsa ... General Moore
Ryan Merriman ... Pete Garcette
Garwin Sanford ... Vice-President Brubaker
Tom Everett Scott ... Sam Garcette
Grace Sherman ... Leni
Jill Teed ... Secretary of State Spears
Keenan Tracey ... Andrew Garcette
Описание: День Независимости превращается в настоящий апокалипсис. Фильм рассказывает историю о том, как наша планета оказывается подвергнута нападению враждебных инопланетян. Президент страны на День Независимости решил отправиться в свой родной городок в одной из американских провинций. И как раз в это время на Землю обрушился инопланетный удар. Едва выживший президент объединяет свои усилия с небольшой группой местных энтузиастов, в состав которой входит ученый, занимающийся поиском инопланетных цивилизаций. Героям кинокартины «Катастрофа на День независимости» необходимо активировать единственно возможную в данном случае технологию, способную нанести поражение захватчикам
Качество: DVDRip
Формат: AVI
Видео: x264, 1977 кбит/с, 720x400, 23.976 к/с
Аудио 1: Русский (AC3, 2 ch, 192 Кбит/с)
Работа над релизом:




Трейлер

Дополнительно

бюджет $1 800 000
рейтинг MPAA детям до 13 лет просмотр не желателен
Also Known As (AKA)
(original title) Independence Daysaster
Germany (DVD title) Battleforce - Angriff der Alienkrieger
USA (alternative title) Independence Day-Saster
USA (working title) The Fourth
================================================
Для Украины: рип дополнительно залит в файлохранилище
Рип дополнительно залит на mail.ru
Для удаления,добавления и извлечения дорожек в mkv используйте бесплатную портативную mkvmerge GUI 6.6.0
Для присоединения потом дорожек к avi воспользуйтесь VirtualDubMod

Знаете ли вы, что...

Отзывы

MediaInfo

Общее
Полное имя : F:\Downloads\11111111111111111111111111111111\Independence Daysaster1\Katastrofa.v.Denj.nezavisimosti.2013.P.HDRip.1400MB.avi
Формат : AVI
Формат/Информация : Audio Video Interleave
Размер файла : 1,37 Гбайт
Продолжительность : 1 ч. 29 м.
Общий поток : 2178 Кбит/сек
Программа кодирования : VirtualDubMod 1.5.10.2 (build 2540/release)
Библиотека кодирования : VirtualDubMod build 2540/release
Видео
Идентификатор : 0
Формат : MPEG-4 Visual
Профиль формата : Advanced Simple@L5
Параметр BVOP формата : 2
Параметр QPel формата : Нет
Параметр GMC формата : Без точки перехода
Параметр матрицы формата : Default (MPEG)
Идентификатор кодека : XVID
Идентификатор кодека/Подсказка : XviD
Продолжительность : 1 ч. 29 м.
Битрейт : 1977 Кбит/сек
Ширина : 720 пикселей
Высота : 400 пикселей
Соотношение сторон : 16:9
Частота кадров : 23,976 кадра/сек
Цветовое пространство : YUV
Субдискретизация насыщенности : 4:2:0
Битовая глубина : 8 бит
Тип развёртки : Прогрессивная
Метод сжатия : С потерями
Бит/(Пиксели*Кадры) : 0.286
Размер потока : 1,24 Гбайт (91%)
Библиотека кодирования : XviD 1.2.1 (UTC 2008-12-04)
Аудио
Идентификатор : 1
Формат : AC-3
Формат/Информация : Audio Coding 3
Расширение режима : CM (complete main)
Параметр Endianness формата : Big
Идентификатор кодека : 2000
Продолжительность : 1 ч. 29 м.
Вид битрейта : Постоянный
Битрейт : 192 Кбит/сек
Каналы : 2 канала
Расположение каналов : Front: L R
Частота : 48,0 КГц
Битовая глубина : 16 бит
Метод сжатия : С потерями
Размер потока : 123 Мбайт (9%)
Выравнивание : Разделение по промежуткам
Продолжительность промежутка : 42 мс. (1,00 видеокадр)
Время предзагрузки промежутка : 500 мс.

Скриншоты











cd Рип дополнительно залит на mail.ru cd2


Last edited by admin on 2014-02-17 03:44; edited 3 times in total
[Profile] [PM]

admin ®

Gender: Male

Longevity: 7 years 3 months

Posts: 4813

Post 16-Feb-2014 21:56 (after 1 minute)

[Quote]

Сетевой торрент
Дешевый фильм для SyFy Channel (бюджет $1 800 000)
[Profile] [PM]
Display posts:    
Reply to topic

Current time is: 08-Dec 03:07

All times are UTC + 3



You cannot post new topics in this forum
You cannot reply to topics in this forum
You cannot edit your posts in this forum
You cannot delete your posts in this forum
You cannot vote in polls in this forum
You cannot attach files in this forum
You cannot download files in this forum